Торренты   
 
 

 

Трон: Наследие 3D / Tron: Legacy 3D (Джозеф Косински) [2010 г.,720p, Anaglyph, red'cyan]

Рейтинг 3D:
79 голосов
7.1
Рейтинг фильма:
72 голосов
7.1
 
Вы должны быть авторизированы,
чтобы ставить оценки


Трон: Наследие 3D / Tron: Legacy 3D
Год выпуска: 2010
Страна: США
Жанр: Фантастика, боевик, триллер, приключения
Продолжительность: 02:05:08
Перевод: Профессиональный (полное дублирование)
Режиссер: Джозеф Косински
В ролях: Джефф Бриджес, Гаррет Хедлунд, Оливия Уайлд, Брюс Бокслейтнер, Джеймс Фрейн, Бо Гарретт, Майкл Шин, Элизабет Мэтис
Описание: Сэм Флинн, технически одарённый 27-летний сын Кевина Флинна, начинает расследовать исчезновение своего отца и оказывается втянутым в тот же мир жестоких программ и гладиаторских игр, в котором его отец жил на протяжении 20 лет. Вместе с помощницей Кевина отец и сын пускаются в рискованное путешествие за жизнью по поражающей взгляд кибер-вселенной, которая стала ещё более совершенной и чрезвычайно опасной.
Релиз группы

Формат 3d: Anaglyph
Цвета очков:

Скриншоты

MediaInfo

General
Format : Matroska
File size : 4.09 GiB
Duration : 2h 5mn
Overall bit rate : 4 683 Kbps
Encoded date : UTC 2011-05-15 12:38:48
Writing application : mkvmerge v4.4.0 ('Die Wiederkehr') сборка от Oct 31 2010 21:52:48
Writing library : libebml v1.0.0 + libmatroska v1.0.0
Video
ID : 1
Format : AVC
Format/Info : Advanced Video Codec
Format profile : High@L3.1
Format settings, CABAC : Yes
Format settings, ReFrames : 4 frames
Format settings, GOP : M=1, N=50
Codec ID : V_MPEG4/ISO/AVC
Duration : 2h 5mn
Bit rate : 3 502 Kbps
Width : 1 280 pixels
Height : 720 pixels
Display aspect ratio : 16:9
Frame rate : 23.976 fps
Color space : YUV
Chroma subsampling : 4:2:0
Bit depth : 8 bits
Scan type : Progressive
Bits/(Pixel*Frame) : 0.158
Stream size : 3.06 GiB (75%)
Writing library : x264 core 115 r1937 aa21558
Encoding settings : cabac=1 / ref=4 / deblock=1:-2:-2 / analyse=0x3:0x113 / me=hex / subme=7 / psy=1 / psy_rd=1.00:0.15 / mixed_ref=1 / me_range=16 / chroma_me=1 / trellis=2 / 8x8dct=1 / cqm=0 / deadzone=21,11 / fast_pskip=1 / chroma_qp_offset=-3 / threads=6 / sliced_threads=0 / nr=0 / decimate=1 / interlaced=0 / bluray_compat=0 / constrained_intra=0 / bframes=6 / b_pyramid=0 / b_adapt=1 / b_bias=0 / direct=1 / weightb=1 / open_gop=0 / weightp=2 / keyint=250 / keyint_min=23 / scenecut=40 / intra_refresh=0 / rc_lookahead=40 / rc=crf / mbtree=1 / crf=18.0 / qcomp=0.60 / qpmin=10 / qpmax=69 / qpstep=4 / ip_ratio=1.40 / aq=1:1.00
Language : English
Audio #1
ID : 2
Format : AC-3
Format/Info : Audio Coding 3
Mode extension : CM (complete main)
Codec ID : A_AC3
Duration : 2h 5mn
Bit rate mode : Constant
Bit rate : 640 Kbps
Channel(s) : 6 channels
Channel positions : Front: L C R, Side: L R, LFE
Sampling rate : 48.0 KHz
Bit depth : 16 bits
Compression mode : Lossy
Stream size : 573 MiB (14%)
Title : Russian 5.1 Dub
Language : Russian
Audio #2
ID : 3
Format : AC-3
Format/Info : Audio Coding 3
Mode extension : CM (complete main)
Codec ID : A_AC3
Duration : 2h 5mn
Bit rate mode : Constant
Bit rate : 448 Kbps
Channel(s) : 6 channels
Channel positions : Front: L C R, Side: L R, LFE
Sampling rate : 48.0 KHz
Bit depth : 16 bits
Compression mode : Lossy
Stream size : 401 MiB (10%)
Title : English 5.1
Language : English
Text #1
ID : 4
Format : UTF-8
Codec ID : S_TEXT/UTF8
Codec ID/Info : UTF-8 Plain Text
Title : Eng sub
Language : English
Text #2
ID : 5
Format : UTF-8
Codec ID : S_TEXT/UTF8
Codec ID/Info : UTF-8 Plain Text
Title : Rus sub
Language : Russian
Text #3
ID : 6
Format : UTF-8
Codec ID : S_TEXT/UTF8
Codec ID/Info : UTF-8 Plain Text
Title : Rus forced sub
Language : Russian
Menu
00:00:00.000 : :Main title / The same team
00:04:07.164 : :All grown up
00:14:44.133 : :A visit from a friend
00:23:15.603 : :The grid
00:26:52.694 : :Games
00:36:12.212 : :Not your father
00:38:35.980 : :Lightcycle battle
00:46:52.727 : :The real Kevin Flinn
00:53:03.764 : :Fater's wisdom
01:04:54.182 : :Castor
01:13:47.423 : :Zuse
01:19:00.945 : :She's an iso
01:22:40.455 : :Catching up
01:25:50.896 : :A deal
01:28:11.828 : :A rescue
01:31:42.414 : :Bulding an army
01:43:13.062 : :Air battle
01:48:18.033 : :Flynn's sacrifice
01:54:48.381 : :You were right
01:58:03.660 : :End credits
Остальные раздачи этого фильма (7)
Благодарности релизеру (0)

Торрент:

Статус:

Размер:

Зарегистрирован   [ 2011-05-16 17:28 ]

проверено

4.09 GB

 
 Мнение о фильме (17)





это фантастика! лучше не видел фильма в 3D! спасибо!!
 

Давно хотел посмотреть этот фильм а когда посмотрел пожалел.
 

ХЕРНЯ ПОЛНАЯ! ОБЫЧНЫЙ 2Д ФИЛЬМ С 3Д сценами. Самый лучший фильм в 3Д полноценном который тут есть это санлентхил 2 вот там реально тема!
 

Фильм сделан классно,но сюжет мог бы быть интереснее
 

Фильм среднячок, а 3D хорошее :)
 

нормально. ожидал, конечно большего.
 

Смотрел в кинотеатре в IMAX, пересмотрел дома нормальный фильм
 

Хоспади, какие же дебилы тут каменты оставляют....
 

Фильм просто супер, а также великолепное 3D! Лучший саундтрек, который я встречал в кинематографе. Буйство стиля и дизайна!
 

3D ниочем, а фильм хороший
 

И где тут 3D? долго искал и не нашел.
 

Фильм норма 3d тоже спасибо!
 

раздаю
 

Ребятушки, ну раздайте! 3 Гб уже неделю вытянуть не могу!
 

вернитесь на раздачу,пожалуйста!!
 

супер
 

все много как по качеству и звуку смотреть можно?