Торренты   
 
 


Шрам / Scar (Джед Вейнтроб) [2007 г.,BDRip, 1080p, Full OverUnder]

Шрам / Scar
Год выпуска: 2007
Страна: США
Жанр: Ужасы
Продолжительность: 01:16:25
Перевод: Профессиональный (полное дублирование)
Режиссер: Джед Вейнтроб
В ролях: Анджела Беттис, Кирби Блисс Блэнтон, Девон Грайе, Бен Коттон, Кристофер Титус, Бриттни Уилсон, Моника Мар-Ли, Брэндон Джей МакЛарен, Кэри Фихэн, Эл Сапьенза...
Описание: Городок Овид в штате Колорадо прославился на весь мир ужасной историей. 16 лет назад в городе объявился маньяк. Ночной охотник ловил подростков и заставлял их медленно и мучительно умирать в морозильных камерах подвала морга. Жертвы испытали все виды пыток, какие только можно вообразить. И только одной пленнице Джоан случайно удалось вырваться на свободу и убить чудовище. С тех пор она стала местной героиней.
В наши дни Джоан возвращается в Овид из другого штата. К ее ужасу, история прошлых лет повторяется. Теперь в списке похищенных ее племянница Олимпия. Джоан должна спасти девушку и навсегда избавить жителей города от адского наваждения…
Формат 3d: OverUnder
Видео: AVC, h264, 1920х2160, 23,976 кадр/сек, 29,2 Мбит/сек
Аудио: Rus, AC-3, 6 каналов, 640 Кбит/сек, 48,0 КГц
Аудио: Eng, AC-3, 6 каналов, 640 Кбит/сек, 48,0 КГц

Скриншоты



me

Общее
Полное имя : D:\Scar 1080р.mkv
Формат : Matroska
Размер файла : 16,6 Гбайт
Продолжительность : 1 ч. 16 м.
Общий поток : 31,1 Мбит/сек
Дата кодирования : UTC 2011-05-16 07:04:11
Программа кодирования : mkvmerge v3.4.0 ('Rapunzel') сборка от May 15 2010 09:38:20
Библиотека кодирования : libebml v0.8.0 + libmatroska v0.9.0
Видео
Идентификатор : 1
Формат : AVC
Формат/Информация : Advanced Video Codec
Профиль формата : High@L5.0
Параметр CABAC формата : Да
Параметр ReFrames формата : 4 кадры
Идентификатор кодека : V_MPEG4/ISO/AVC
Продолжительность : 1 ч. 16 м.
Битрейт : 29,2 Мбит/сек
Ширина : 1920 пикс.
Высота : 2160 пикс.
Соотношение сторон : 0,889
Частота кадров : 23,976 кадр/сек
Цветовое пространство : YUV
Подвыборка цветности : 4:2:0
Битовая глубина : 8 бит
Тип развёртки : Прогрессивная
Бит/(Пиксели*Кадры) : 0.294
Размер потока : 15,6 Гбайт (94%)
Библиотека кодирования : x264 core 115 r1995 c1e60b9
Настройки программы : cabac=1 / ref=4 / deblock=1:-2:-2 / analyse=0x3:0x113 / me=umh / subme=9 / psy=1 / psy_rd=1.00:0.00 / mixed_ref=1 / me_range=16 / chroma_me=1 / trellis=2 / 8x8dct=1 / cqm=0 / deadzone=21,11 / fast_pskip=1 / chroma_qp_offset=-3 / threads=9 / sliced_threads=0 / nr=0 / decimate=1 / interlaced=0 / bluray_compat=0 / constrained_intra=0 / bframes=6 / b_pyramid=0 / b_adapt=2 / b_bias=0 / direct=3 / weightb=1 / open_gop=0 / weightp=2 / keyint=250 / keyint_min=23 / scenecut=40 / intra_refresh=0 / rc_lookahead=40 / rc=crf / mbtree=1 / crf=20.0 / qcomp=0.60 / qpmin=0 / qpmax=69 / qpstep=4 / ip_ratio=1.40 / aq=1:1.00
Язык : English
Аудио #1
Идентификатор : 2
Формат : AC-3
Формат/Информация : Audio Coding 3
Расширение режима : CM (complete main)
Идентификатор кодека : A_AC3
Продолжительность : 1 ч. 16 м.
Вид битрейта : Постоянный
Битрейт : 640 Кбит/сек
Канал(ы) : 6 канала(ов)
Расположение каналов : Front: L C R, Side: L R, LFE
Частота : 48,0 КГц
Битовая глубина : 16 бит
Метод сжатия : С потерями
Размер потока : 350 Мбайт (2%)
Язык : Russian
Аудио #2
Идентификатор : 3
Формат : AC-3
Формат/Информация : Audio Coding 3
Расширение режима : CM (complete main)
Идентификатор кодека : A_AC3
Продолжительность : 1 ч. 16 м.
Вид битрейта : Постоянный
Битрейт : 640 Кбит/сек
Канал(ы) : 6 канала(ов)
Расположение каналов : Front: L C R, Side: L R, LFE
Частота : 48,0 КГц
Битовая глубина : 16 бит
Метод сжатия : С потерями
Размер потока : 350 Мбайт (2%)
Язык : English
Скриншоты сравнения http://screenshotcomparison.com/comparison/51950
Scar 1080р.mkv.torrent
Торрент: Не зарегистрирован

Скачать

83 KB

Добавлен: 2011-05-16 18:52
Скачано: 1472 раз  [ Список скачавших ]