Торренты   
 
 

 

Сумасшедшая езда / Drive Angry (Патрик Люссье / Patrick Lussier) [2011 г., Anamorph SideBySide]

Рейтинг 3D:
76 голосов
8.3
Рейтинг фильма:
74 голосов
7.3
 
Вы должны быть авторизированы,
чтобы ставить оценки


Сумасшедшая езда / Drive Angry
Год выпуска: 2011
Страна: США
Жанр: фэнтези, боевик, триллер
Продолжительность: 01:44:29
Перевод: Любительский (одноголосый)
Режиссер: Патрик Люссье / Patrick Lussier
В ролях: Николас Кейдж, Эмбер Хёрд, Уильям Фихтнер, Билли Бёрк, Дэвид Морс, Тодд Фармер, Криста Кэмпбелл, Шарлотта Росс, Том Аткинс, Джек МакГи
Описание: В центре событий герой, идущий по следу негодяев, убивших его дочь. Главный герой «слетает с катушек», прыгает за руль своего автомобиля и начинает мстить, оставляя по обочинам дороги трупы похитителей
Доп. информация: Одноголосая закадровая озвучка Вячеслав Замез / zamez
Формат 3d: Anamorph SideBySide
Порядок ракурсов: Параллельная пара
Видео: AVC at 9196 Кбит/сек Aspect : 1920 x 1080 (1.778) at 23.976 fps

Скриншоты

МедиаИнфо

Уникальный идентификатор : 245178844136055824575341036029496534289 (0xB873BA4ED1C1F44F89205BD7A55C2511)
Полное имя : D:\Drive.Angry.3D.H-SBS.Eng.DTS.h264-3D4U (1).mkv
Формат : Matroska
Размер файла : 7,42 Гбайт
Продолжительность : 1 ч. 44 м.
Общий поток : 10,2 Мбит/сек
Название фильма : Drive Angry 3D - 3D4U - www.3dblurayiso.com
Дата кодирования : UTC 2011-05-17 14:11:34
Программа кодирования : mkvmerge v4.0.0 ('The Stars were mine') сборка от Jun 11 2010 23:24:27
Библиотека кодирования : libebml v1.0.0 + libmatroska v1.0.0
Видео
Идентификатор : 1
Формат : AVC
Формат/Информация : Advanced Video Codec
Профиль формата : High@L4.1
Параметр CABAC формата : Да
Параметр ReFrames формата : 4 кадра
Параметры GOP формата : M=4, N=32
Идентификатор кодека : V_MPEG4/ISO/AVC
Продолжительность : 1 ч. 44 м.
Битрейт : 9196 Кбит/сек
Ширина : 1920 пикс.
Высота : 1080 пикс.
Соотношение сторон : 16:9
Частота кадров : 23,976 кадр/сек
Цветовое пространство : YUV
Подвыборка цветности : 4:2:0
Битовая глубина : 8 бит
Тип развёртки : Прогрессивная
Бит/(Пиксели*Кадры) : 0.185
Размер потока : 6,71 Гбайт (90%)
Библиотека кодирования : x264 core 114 r1913 5fd3dce
Настройки программы : cabac=1 / ref=4 / deblock=1:-1:-1 / analyse=0x3:0x113 / me=umh / subme=7 / psy=1 / psy_rd=1.00:0.15 / mixed_ref=1 / me_range=16 / chroma_me=1 / trellis=1 / 8x8dct=1 / cqm=0 / deadzone=21,11 / fast_pskip=1 / chroma_qp_offset=-3 / threads=18 / sliced_threads=0 / nr=0 / decimate=1 / interlaced=0 / constrained_intra=0 / bframes=3 / b_pyramid=2 / b_adapt=1 / b_bias=0 / direct=3 / weightb=1 / open_gop=0 / weightp=2 / keyint=250 / keyint_min=23 / scenecut=40 / intra_refresh=0 / rc_lookahead=40 / rc=crf / mbtree=1 / crf=18.0 / qcomp=0.60 / qpmin=10 / qpmax=69 / qpstep=4 / ip_ratio=1.40 / aq=1:1.00
Язык : English
Аудио #1
Идентификатор : 2
Формат : AC-3
Формат/Информация : Audio Coding 3
Расширение режима : CM (complete main)
Идентификатор кодека : A_AC3
Продолжительность : 1 ч. 44 м.
Вид битрейта : Постоянный
Битрейт : 384 Кбит/сек
Каналы : 6 каналов
Расположение каналов : Front: L C R, Side: L R, LFE
Частота : 48,0 КГц
Битовая глубина : 16 бит
Метод сжатия : С потерями
Размер потока : 287 Мбайт (4%)
Заголовок : VO | Zamez
Язык : Russian
Аудио #2
Идентификатор : 3
Формат : AC-3
Формат/Информация : Audio Coding 3
Расширение режима : CM (complete main)
Идентификатор кодека : A_AC3
Продолжительность : 1 ч. 44 м.
Вид битрейта : Постоянный
Битрейт : 384 Кбит/сек
Каналы : 6 каналов
Расположение каналов : Front: L C R, Side: L R, LFE
Частота : 48,0 КГц
Битовая глубина : 16 бит
Метод сжатия : С потерями
Размер потока : 287 Мбайт (4%)
Заголовок : Original
Язык : English
Остальные раздачи этого фильма (7)
Благодарности релизеру (2)

Торрент:

Статус:

Размер:

Зарегистрирован   [ 2011-05-17 19:38 ]

проверено

7.42 GB