Торренты   
 
 

 

Вселенная: 7 чудес Солнечной системы / Universe: 7 Wonders of the Solar System (Свен Беркемайер, Карл Х. Линдал) [2010 г., Anamorph OverUnder]

Рейтинг 3D:
9 голосов
8.9
Рейтинг фильма:
9 голосов
8.9
 
Вы должны быть авторизированы,
чтобы ставить оценки


Вселенная: 7 чудес Солнечной системы / Universe: 7 Wonders of the Solar System
Год выпуска: 2010
Страна: США
Жанр: документальный
Продолжительность: 00:44:04
Перевод: Любительский (двухголосый)
Режиссер: Свен Беркемайер, Карл Х. Линдал
Описание: Этот Мир не похож на всё, что вы видели или о чём читали. Наша Галактика стала домом для семи самых невероятных, потрясающих и таинственных феноменов во Вселенной! Вашему вниманию предлагается документальный фильм от A&E Home Video в 3D формате.
by KinoKRITIK, andreii, r57shell
Формат 3d: Anamorph OverUnder (Left Image Top)
Видео: MPEG4 Video (H264) 1920x1080 23.976 fps 12.5 Mbps
Аудио 1: AC3, 5.1, 48.0 KHz, 640 Kb/s, Русский
Аудио 2: AC3, 5.1, 48.0 KHz, 640 Kb/s, Английский (оригинал)
Субтитры 1: ASS, Русские форсированные внешние.
Субтитры 2: ASS, Русские полные внешние.

Скриншоты


Соответствующие кадры с Blu-ray 3D


MediaInfo

Код:
General
Complete name                    : F:\Universe.7.Wonders.of.the.Solar.System.3D.2010.BD3DRip-AVC.Half.OU.x264.AC3.3D-RuGroup\Universe.7.Wonders.of.the.Solar.System.3D.2010.BD3DRip-AVC.Half.OU.x264.AC3.3D-RuGroup.mkv
Format                           : Matroska
File size                        : 4.24 GiB
Duration                         : 44mn 4s
Overall bit rate                 : 13.8 Mbps
Movie name                       : Universe.7.Wonders.of.the.Solar.System.3D.2010.BD3DRip-AVC.Half.OU.x264.AC3.3D-RuGroup
Encoded date                     : UTC 2011-05-18 09:14:07
Writing application              : mkvmerge v2.8.0 ('The Tree') built on May  9 2009 18:02:06
Writing library                  : libebml v0.7.7 + libmatroska v0.8.1
Video
ID                               : 1
Format                           : AVC
Format/Info                      : Advanced Video Codec
Format profile                   : High@L4.0
Format settings, CABAC           : No
Format settings, ReFrames        : 4 frames
Codec ID                         : V_MPEG4/ISO/AVC
Duration                         : 44mn 4s
Bit rate                         : 12.5 Mbps
Width                            : 1 920 pixels
Height                           : 1 080 pixels
Display aspect ratio             : 16:9
Original display aspect ratio    : 0.889
Frame rate                       : 23.976 fps
Color space                      : YUV
Chroma subsampling               : 4:2:0
Bit depth                        : 8 bits
Scan type                        : Progressive
Bits/(Pixel*Frame)               : 0.251
Stream size                      : 3.76 GiB (89%)
Title                            : Universe.7.Wonders.of.the.Solar.System.3D.2010.BD3DRip-AVC.Half.OU.x264.AC3.3D-RuGroup
Writing library                  : x264 core 115 r1995 c1e60b9
Encoding settings                : cabac=0 / ref=3 / deblock=1:-1:-1 / analyse=0x3:0x113 / me=umh / subme=8 / psy=1 / psy_rd=1.00:0.15 / mixed_ref=1 / me_range=16 / chroma_me=1 / trellis=1 / 8x8dct=1 / cqm=0 / deadzone=21,11 / fast_pskip=1 / chroma_qp_offset=-3 / threads=3 / sliced_threads=0 / nr=0 / decimate=1 / interlaced=0 / bluray_compat=0 / constrained_intra=0 / bframes=3 / b_pyramid=2 / b_adapt=2 / b_bias=0 / direct=3 / weightb=1 / open_gop=0 / weightp=2 / keyint=250 / keyint_min=23 / scenecut=40 / intra_refresh=0 / rc_lookahead=50 / rc=2pass / mbtree=1 / bitrate=12500 / ratetol=1.0 / qcomp=0.60 / qpmin=0 / qpmax=69 / qpstep=4 / cplxblur=20.0 / qblur=0.5 / ip_ratio=1.40 / aq=1:1.00
Audio #1
ID                               : 2
Format                           : AC-3
Format/Info                      : Audio Coding 3
Mode extension                   : CM (complete main)
Codec ID                         : A_AC3
Duration                         : 44mn 4s
Bit rate mode                    : Constant
Bit rate                         : 640 Kbps
Channel(s)                       : 6 channels
Channel positions                : Front: L C R, Side: L R, LFE
Sampling rate                    : 48.0 KHz
Bit depth                        : 16 bits
Stream size                      : 202 MiB (5%)
Title                            : Russian (3D-RuGroup)
Language                         : Russian
Audio #2
ID                               : 3
Format                           : AC-3
Format/Info                      : Audio Coding 3
Mode extension                   : CM (complete main)
Codec ID                         : A_AC3
Duration                         : 44mn 4s
Bit rate mode                    : Constant
Bit rate                         : 640 Kbps
Channel(s)                       : 6 channels
Channel positions                : Front: L C R, Side: L R, LFE
Sampling rate                    : 48.0 KHz
Bit depth                        : 16 bits
Stream size                      : 202 MiB (5%)
Title                            : English
Language                         : English
Menu
00:00:00.000                     : en:Chapter01
00:02:36.573                     : en:Chapter02
00:08:38.017                     : en:Chapter03
00:12:51.938                     : en:Chapter04
00:17:05.942                     : en:Chapter05
00:24:51.198                     : en:Chapter06
00:30:00.507                     : en:Chapter07
00:36:23.390                     : en:Chapter08
Благодарности релизеру (27)

Торрент:

Статус:

Размер:

Зарегистрирован   [ 2011-05-18 15:17 ]

проверено

4.24 GB