Торренты   
 
 


Аватар [Расширенная версия] / Avatar [Extended Cut] (Джеймс Кэмерон) [2009 г., BDRip 1080p, Anamorph OverUnder]

Аватар [Расширенная версия] / Avatar [Extended Cut]- Год выпуска: 2009
Страна: США, Великобритания
Жанр: фантастика, боевик, драма, приключения
Продолжительность: 02:58:09
Перевод: Профессиональный (полное дублирование)
Субтитры: отдельными файлами
Russian (речь НА'ВИ, стилизованные) графические 3D,
Russian (речь НА'ВИ) текстовые,
English (речь НА'ВИ) текстовые.-Режиссер: Джеймс Кэмерон
В ролях: Сэм Уортингтон, Зои Салдана, Сигурни Уивер, Стивен Лэнг, Мишель Родригес, Джованни Рибизи, Джоэль Мур, Си Си Эйч Паундер, Уэс Студи, Лас Алонсо
Описание фильма: Джейк Салли - бывший морской пехотинец, прикованный к инвалидному креслу. Несмотря на немощное тело, Джейк в душе по-прежнему остается воином. Он получает задание совершить путешествие в несколько световых лет к базе землян на планете Пандора, где корпорации добывают редкий минерал, имеющий огромное значение для выхода Земли из энергетического кризиса.-Качество: BDRip
Формат: MKV
Формат 3d: Anamorph OverUnder / Вертикальная анаморфная стереопара
Видео кодек: H264
Аудио кодек: AC-3
Видео: MPEG4 Video (H264) / 1920х1080 / 23.98fps / 13,3 Мбит/сек
Аудио 1: Rus AC-3 / 5.1 / 48 kHz / 640 kbps / 16-bit
Аудио 2: Eng AC-3 / 5.1 / 48 kHz / 640 kbps / 16-bit
Субтитры: отдельными файлами
Russian (речь НА'ВИ, стилизованные) графические 3D,
Russian (речь НА'ВИ) текстовые,
English (речь НА'ВИ) текстовые.-

Скриншоты



Медиа инфо

Общее
Уникальный идентификатор : 226626936660755133163800551412874319157 (0xAA7EC2A66D3BA2A18881A65AED9B9535)
Полное имя : Avatar_Extended_Cut_3D+2D.mkv
Формат : Matroska
Размер файла : 18,5 Гбайт
Продолжительность : 2 ч. 58 м.
Общий поток : 14,9 Мбит/сек
Название фильма : BDRip - by TopGun
Дата кодирования : UTC 2011-05-18 13:32:29
Программа кодирования : mkvmerge v3.4.0 ('Rapunzel') сборка от May 15 2010 09:38:20
Библиотека кодирования : libebml v0.8.0 + libmatroska v0.9.0
Видео
Идентификатор : 1
Формат : AVC
Формат/Информация : Advanced Video Codec
Профиль формата : High@L4.0
Параметр CABAC формата : Да
Параметр ReFrames формата : 4 кадры
Идентификатор кодека : V_MPEG4/ISO/AVC
Продолжительность : 2 ч. 58 м.
Битрейт : 13,3 Мбит/сек
Ширина : 1920 пикс.
Высота : 1080 пикс.
Соотношение сторон : 0,889
Соотношение сторон в оригинале : 16:9
Частота кадров : 23,976 кадр/сек
Цветовое пространство : YUV
Подвыборка цветности : 4:2:0
Битовая глубина : 8 бит
Тип развёртки : Прогрессивная
Бит/(Пиксели*Кадры) : 0.268
Размер потока : 16,6 Гбайт (89%)
Заголовок : Avatar [Extended Cut]
Библиотека кодирования : x264 core 114 r1913 5fd3dce
Настройки программы : cabac=1 / ref=4 / deblock=1:-3:-3 / analyse=0x3:0x133 / me=tesa / subme=10 / psy=1 / psy_rd=1.00:0.00 / mixed_ref=1 / me_range=48 / chroma_me=1 / trellis=2 / 8x8dct=1 / cqm=0 / deadzone=21,11 / fast_pskip=0 / chroma_qp_offset=-2 / threads=6 / sliced_threads=0 / nr=0 / decimate=1 / interlaced=0 / constrained_intra=0 / bframes=7 / b_pyramid=2 / b_adapt=2 / b_bias=0 / direct=3 / weightb=1 / open_gop=0 / weightp=2 / keyint=250 / keyint_min=23 / scenecut=40 / intra_refresh=0 / rc_lookahead=60 / rc=crf / mbtree=1 / crf=18.0 / qcomp=0.70 / qpmin=0 / qpmax=60 / qpstep=4 / ip_ratio=1.40 / aq=1:0.70
Язык : English
Аудио #1
Идентификатор : 2
Формат : AC-3
Формат/Информация : Audio Coding 3
Расширение режима : CM (complete main)
Идентификатор кодека : A_AC3
Продолжительность : 2 ч. 58 м.
Вид битрейта : Постоянный
Битрейт : 640 Кбит/сек
Канал(ы) : 6 канала(ов)
Расположение каналов : Front: L C R, Side: L R, LFE
Частота : 48,0 КГц
Битовая глубина : 16 бит
Метод сжатия : С потерями
Размер потока : 816 Мбайт (4%)
Заголовок : Russian - Профессиональный (полное дублирование)
Язык : Russian
Аудио #2
Идентификатор : 3
Формат : AC-3
Формат/Информация : Audio Coding 3
Расширение режима : CM (complete main)
Идентификатор кодека : A_AC3
Продолжительность : 2 ч. 58 м.
Вид битрейта : Постоянный
Битрейт : 640 Кбит/сек
Канал(ы) : 6 канала(ов)
Расположение каналов : Front: L C R, Side: L R, LFE
Частота : 48,0 КГц
Битовая глубина : 16 бит
Метод сжатия : С потерями
Размер потока : 816 Мбайт (4%)
Заголовок : English - (Оригинал)
Язык : English
Меню
00:00:00.000 : :00:00:00.000
00:05:25.575 : :00:05:25.575
00:10:12.278 : :00:10:12.278
00:11:47.915 : :00:11:47.915
00:15:59.208 : :00:15:59.208
00:17:54.781 : :00:17:54.781
00:23:54.891 : :00:23:54.891
00:27:54.547 : :00:27:54.547
00:28:02.555 : :00:28:02.555
00:28:45.223 : :00:28:45.223
00:30:14.020 : :00:30:14.020
00:30:27.617 : :00:30:27.617
00:32:04.464 : :00:32:04.464
00:32:27.904 : :00:32:27.904
00:37:16.525 : :00:37:16.525
00:39:08.053 : :00:39:08.053
00:41:18.475 : :00:41:18.475
00:47:43.318 : :00:47:43.318
00:48:09.177 : :00:48:09.177
00:49:16.912 : :00:49:16.912
00:53:05.015 : :00:53:05.015
00:54:22.008 : :00:54:22.008
00:55:42.213 : :00:55:42.213
00:57:44.043 : :00:57:44.043
00:58:32.050 : :00:58:32.050
01:01:09.415 : :01:01:09.415
01:03:09.619 : :01:03:09.619
01:03:57.208 : :01:03:57.208
01:07:03.227 : :01:07:03.227
01:09:40.634 : :01:09:40.634
01:11:50.222 : :01:11:50.222
01:15:18.889 : :01:15:18.889
01:15:53.799 : :01:15:53.799
01:17:32.230 : :01:17:32.230
01:18:07.891 : :01:18:07.891
01:22:38.119 : :01:22:38.119
01:25:59.487 : :01:25:59.487
01:26:12.709 : :01:26:12.709
01:27:42.298 : :01:27:42.298
01:27:54.435 : :01:27:54.435
01:33:00.408 : :01:33:00.408
01:36:03.424 : :01:36:03.424
01:37:36.642 : :01:37:36.642
01:37:36.892 : :01:37:36.892
01:44:15.290 : :01:44:15.290
01:46:49.235 : :01:46:49.235
01:48:14.029 : :01:48:14.029
01:48:58.198 : :01:48:58.198
01:50:02.595 : :01:50:02.595
01:51:53.581 : :01:51:53.581
01:58:30.895 : :01:58:30.895
02:02:13.284 : :02:02:13.284
02:07:51.663 : :02:07:51.663
02:09:30.554 : :02:09:30.554
02:12:36.615 : :02:12:36.615
02:16:03.363 : :02:16:03.363
02:19:31.654 : :02:19:31.654
02:23:59.630 : :02:23:59.630
02:30:05.079 : :02:30:05.079
02:32:13.290 : :02:32:13.290
02:32:59.211 : :02:32:59.211
02:33:56.852 : :02:33:56.852
02:34:52.908 : :02:34:52.908
02:40:02.259 : :02:40:02.259
02:40:45.886 : :02:40:45.886
02:41:03.987 : :02:41:03.987
02:45:33.214 : :02:45:33.214
02:46:30.813 : :02:46:30.813
02:46:48.498 : :02:46:48.498
02:48:56.793 : :02:48:56.793
02:49:11.724 : :02:49:11.724
02:51:32.073 : :02:51:32.073
Внимание! Рип содержит 2Д вставки из расширенной версии!
Комментарии:





Рип содержит 2д вставки из расширенной версии!!!
 

WOW!!! Дозрело!!! Большое спасибо, Андрей!
Наконец-то исполнилось уже залежавшееся желание!!!
РЕСПЕКТ!!!
 

Спасибо посмотрим
 

Спасибо большое!!! класс!!!
 

Самый тот размерчик! В театралке было 17 Гб.
 

TopGun
Спасибо за эксклюзив, РЕСПЕКТ!
 

Очень многие путают расширенную, режиссерскую, специальную версии...
1-я версия: театральная, продолжительность 02:41:41, выходила на широкие экраны как в 2D, так и в 3D одновременно, прокат с 10 декабря (мир) и 17 декабря (РФ).
2-я версия: спец. версия для кинотеатров, продолжительность 02:50:34, выходила на широкие экраны только в 3D, ограниченный прокат с 25 августа (РФ). На диске в 3D не выходил. Есть в 2D в 3-х дисковом коллекционном блю-рей издании.
3-я версия: расширенная, продолжительность 02:58:09, на широкие экраны не выходила вообще, в 3D-формате полностью не существует (никто и не видел...). Есть в 2D в 3-х дисковом коллекционном блю-рей издании.
4-я версия: режиссерская, продолжительность более 3-х часов, включает удаленные сцены, которые не были полностью отрендерены или переработаны. Эти удаленные сцены есть только в 2D в 3-х дисковом коллекционном блю-рей издании.
 

Топик был перенесен из форума Фильмы HD в форум Архив

Zagruzin