Торренты   
 
 

 

Сумасшедшая езда / Drive Angry [2011 г, 1080p, Anamorph OverUnder]

Рейтинг 3D:
76 голосов
8.3
Рейтинг фильма:
74 голосов
7.3
 
Вы должны быть авторизированы,
чтобы ставить оценки


Сумасшедшая езда / Drive Angry
Год выпуска: 2011
Страна: США
Жанр: Фэнтези, Боевик, Триллер
Продолжительность: 01:44:30
Перевод: Дубляж + Одноголосый (Вячеслав Замез) +
Одноголосый (Dr.Joker - ненормативная лексика)
Режиссер: Патрик Люссье / Patrick Lussier
В ролях: Николас Кейдж, Эмбер Хёрд, Уильям Фихтнер, Билли Бёрк, Дэвид Морс, Тодд Фармер, Криста Кэмпбелл, Шарлотта Росс, Том Аткинс, Джек МакГи.
Описание: В центре событий герой, идущий по следу негодяев, убивших его дочь. Главный герой «слетает с катушек», прыгает за руль своего автомобиля и начинает мстить, оставляя по обочинам дороги трупы похитителей.
Формат 3d: Anamorph OverUnder

Качество: BD-Rip
Контейнер: MKV
Видео: AVC / 1920х1080p / 23,976 fps / 8 643 Kbps
Аудио#1: Русский / AC3 / 6 ch / 384 Kbps / 48 KHz (Дубляж)
Аудио#2: Русский / AC3 / 6 ch / 448 Kbps / 48 KHz (AVO - Zamez)
Аудио#3: Русский / AC3 / 6 ch / 448 Kbps / 48 KHz (AVO - Dr.Joker - ненормативная лексика)
Аудио#4: Английский / AC3 / 6 ch / 640 kbps / 48 KHz

Лог кодирования и MediaInfo


General
UniqueID : 248635817219189632984193170630988655099 (0xBB0D843D7867E819B766BC21F17DE9FB)
Complete name : F:\Downloads\DriveAngry3D.halfOU.Dub.ash61.mkv
Format : Matroska
File size : 7.86 GiB
Duration : 1h 44mn
Overall bit rate : 10.8 Mbps
Encoded date : UTC 2011-06-21 16:12:45
Writing application : mkvmerge v3.4.0 ('Rapunzel') сборка от May 15 2010 09:38:20
Writing library : libebml v0.8.0 + libmatroska v0.9.0
Video
ID : 1
Format : AVC
Format/Info : Advanced Video Codec
Format profile : High@L4.1
Format settings, CABAC : Yes
Format settings, ReFrames : 4 frames
Codec ID : V_MPEG4/ISO/AVC
Duration : 1h 44mn
Bit rate : 8 630 Kbps
Width : 1 920 pixels
Height : 1 080 pixels
Display aspect ratio : 0.889
Original display aspect ratio : 16:9
Frame rate : 23.976 fps
Original frame rate : 25.000 fps
Color space : YUV
Chroma subsampling : 4:2:0
Bit depth : 8 bits
Scan type : Progressive
Bits/(Pixel*Frame) : 0.174
Stream size : 6.30 GiB (80%)
Writing library : x264 core 113 r1884 7313bb5
Encoding settings : cabac=1 / ref=4 / deblock=1:-1:-1 / analyse=0x3:0x113 / me=umh / subme=9 / psy=1 / psy_rd=1.00:0.15 / mixed_ref=1 / me_range=16 / chroma_me=1 / trellis=2 / 8x8dct=1 / cqm=0 / deadzone=21,11 / fast_pskip=1 / chroma_qp_offset=-3 / threads=3 / sliced_threads=0 / nr=0 / decimate=1 / interlaced=0 / constrained_intra=0 / bframes=4 / b_pyramid=2 / b_adapt=2 / b_bias=0 / direct=3 / weightb=1 / open_gop=0 / weightp=2 / keyint=250 / keyint_min=25 / scenecut=40 / intra_refresh=0 / rc_lookahead=40 / rc=crf / mbtree=1 / crf=18.0 / qcomp=0.60 / qpmin=0 / qpmax=69 / qpstep=4 / ip_ratio=1.40 / aq=1:1.00
Audio #1
ID : 2
Format : AC-3
Format/Info : Audio Coding 3
Mode extension : CM (complete main)
Codec ID : A_AC3
Duration : 1h 44mn
Bit rate mode : Constant
Bit rate : 384 Kbps
Channel(s) : 6 channels
Channel positions : Front: L C R, Side: L R, LFE
Sampling rate : 48.0 KHz
Bit depth : 16 bits
Compression mode : Lossy
Stream size : 287 MiB (4%)
Title : Лицензия
Language : Russian
Audio #2
ID : 3
Format : AC-3
Format/Info : Audio Coding 3
Mode extension : CM (complete main)
Codec ID : A_AC3
Duration : 1h 44mn
Bit rate mode : Constant
Bit rate : 448 Kbps
Channel(s) : 6 channels
Channel positions : Front: L C R, Side: L R, LFE
Sampling rate : 48.0 KHz
Bit depth : 16 bits
Compression mode : Lossy
Stream size : 335 MiB (4%)
Title : AVO (Zamez)
Language : Russian
Audio #3
ID : 4
Format : AC-3
Format/Info : Audio Coding 3
Mode extension : CM (complete main)
Codec ID : A_AC3
Duration : 1h 44mn
Bit rate mode : Constant
Bit rate : 448 Kbps
Channel(s) : 6 channels
Channel positions : Front: L C R, Side: L R, LFE
Sampling rate : 48.0 KHz
Bit depth : 16 bits
Compression mode : Lossy
Stream size : 335 MiB (4%)
Title : AVO.Goblin.Doctor.Joker-Bloodymetall
Language : Russian
Audio #4
ID : 5
Format : AC-3
Format/Info : Audio Coding 3
Mode extension : CM (complete main)
Codec ID : A_AC3
Duration : 1h 44mn
Bit rate mode : Constant
Bit rate : 640 Kbps
Channel(s) : 6 channels
Channel positions : Front: L C R, Side: L R, LFE
Sampling rate : 48.0 KHz
Bit depth : 16 bits
Compression mode : Lossy
Stream size : 478 MiB (6%)
Language : English
Menu
00:00:00.000 : en: 01
00:08:27.632 : en: 02
00:12:33.586 : en: 03
00:16:32.533 : en: 04
00:19:43.682 : en: 05
00:26:28.003 : en: 06
00:30:20.110 : en: 07
00:35:38.470 : en: 08
00:42:12.113 : en: 09
00:50:48.212 : en: 10
00:54:09.580 : en: 11
00:58:14.783 : en: 12
01:02:11.436 : en: 13
01:10:48.703 : en: 14
01:16:05.478 : en: 15
01:21:48.821 : en: 16
01:27:33.206 : en: 17
01:33:57.632 : en: 18

Скриншоты

Тем, у кого слева-справа имеются чёрные полосы

Необходимо скачать MKVmergeGUI (входит в пакет MkvToolNix). Рекомендую устанавливать последнюю "беспроблеммную" версию - 3.4.0. Брать тут. Программа бесплатная.
Запускаете установленную программу, выбираете данный фильм нажав кнопку "Добавить", далее левый клик на видеодорожку в "Дорожки, главы и теги" -> перейти на вкладку (внизу) "Формат конкретные опции".
Выставить "Ширина/высота дисплея:" - "1920" х "1080"!
Больше ничего лучше не трогать!
Имейте ввиду - реальное разрешение при указанных настройках не меняется, меняется только параметр Display Aspect Ratio (DAR).
Всё, жмите "Начать мультиплексирование"!
Процесс занимает, обычно, ~ 1-2 ГБ/мин.
Для версий программы от 4.0.0 и выше, настоятельно рекомендую отключить сжатие заголовков - либо для каждой дорожки отдельно, либо отключить по умолчанию.
Отключить по умолчанию так:
Меню "Файл" -> "Опции" -> вкладка "mmg" -> снять галку с пункта "Сжатие заголовков"
В других версиях программы всё аналогично, только названия кнопок-пунктов могут немного отличаться - смысл и назначение от этого не меняется.
Остальные раздачи этого фильма (7)
Благодарности релизеру (71)

Торрент:

Статус:

Размер:

Зарегистрирован   [ 2011-08-01 11:47 ]

проверено

7.86 GB