Торренты   
 
 

 

Чудеса океана 3D/ Ocean Wonderland 3D(Жан-Жак Мантелло / Jean-Jacques Mantello) [2003 г., 720p, Anaglyph, red'cyan]

Рейтинг 3D:
2 голосов
9.0
Рейтинг фильма:
2 голосов
9.0
 
Вы должны быть авторизированы,
чтобы ставить оценки


-Чудеса океана 3D
Ocean Wonderland 3D- Год выпуска: 2003
Страна: Франция
Жанр: Документальный
Продолжительность: 0:40:39
Перевод: Профессиональный (полное дублирование)
Режиссер: Жан-Жак Мантелло / Jean-Jacques Mantello
Описание: «Чудеса океана» — первый трехмерный подводный широкоформатный фильм, целиком снятый с использованием цифровых технологий. Благодаря этим технологиям, большая часть кадров картины демонстрирует подводный мир в естественном освещении. Основная тема фильма, снятого на Большом Барьерном рифе и Багамах, — невероятное разнообразие морской жизни на коралловых рифах и поражающая воображение красота бесчисленных вариаций самих кораллов. Основная миссия — подчеркнуть важную роль коралловых колоний в поддержании экологического равновесия на нашей планете, и предупредить людей об опасности, что грозит с их уничтожением.-Релиз: -Формат: MKV
Видео:
AVC; 1280x720; 16:9; 23,976 кадр/сек; 7106 Кбит/сек
Аудио:
Russian; AC-3; 48,0 КГц; 448 Кбит/сек; 6ch(Front: L C R, Side: L R, LFE)
English; AC-3; 48,0 КГц; 640 Кбит/сек; 6ch(Front: L C R, Side: L R, LFE)

Формат 3d: Anaglyph
Цвета очков:

MediaInfo

Общее
Уникальный идентификатор : 174603043944741335906962579620194392154 (0x835B52B4CF3A590BBE7852FE89FF985A)
Полное имя :
Ocean.Wonderland.2003.3D.AVC.720p_AnRC.Rus.Eng.3D-RuGroup.mkv
Формат : Matroska
Размер файла : 2,37 Гбайт
Продолжительность : 40 м.
Общий поток : 8360 Кбит/сек
Дата кодирования : UTC 2011-05-19 15:50:44
Программа кодирования : mkvmerge v3.4.0 ('Rapunzel') сборка от May 15 2010 09:38:20
Библиотека кодирования : libebml v0.8.0 + libmatroska v0.9.0
Видео
Идентификатор : 1
Формат : AVC
Формат/Информация : Advanced Video Codec
Профиль формата : High@L4.1
Параметр CABAC формата : Да
Параметр ReFrames формата : 4 кадра
Идентификатор кодека : V_MPEG4/ISO/AVC
Продолжительность : 40 м.
Битрейт : 7106 Кбит/сек
Ширина : 1280 пикс.
Высота : 720 пикс.
Соотношение сторон : 16:9
Частота кадров : 23,976 кадр/сек
Цветовое пространство : YUV
Подвыборка цветности : 4:2:0
Битовая глубина : 8 бит
Тип развёртки : Прогрессивная
Бит/(Пиксели*Кадры) : 0.322
Размер потока : 2,02 Гбайт (85%)
Заголовок : Ocean.Wonderland.2003.3D.AVC.720p_AnRC.Rus.Eng.3D-RuGroup
Библиотека кодирования : x264 core 115 r1947 b5a8ad7
Настройки программы : cabac=1 / ref=4 / deblock=1:-3:-3 / analyse=0x3:0x113 / me=umh / subme=9 / psy=1 / psy_rd=1.00:0.15 / mixed_ref=1 / me_range=16 / chroma_me=1 / trellis=2 / 8x8dct=1 / cqm=0 / deadzone=21,11 / fast_pskip=1 / chroma_qp_offset=-3 / threads=3 / sliced_threads=0 / nr=0 / decimate=1 / interlaced=0 / bluray_compat=0 / constrained_intra=0 / bframes=6 / b_pyramid=0 / b_adapt=2 / b_bias=0 / direct=3 / weightb=1 / open_gop=0 / weightp=2 / keyint=250 / keyint_min=23 / scenecut=40 / intra_refresh=0 / rc_lookahead=40 / rc=crf / mbtree=1 / crf=18.0 / qcomp=0.60 / qpmin=0 / qpmax=51 / qpstep=4 / ip_ratio=1.40 / aq=1:1.00
Аудио #1
Идентификатор : 2
Формат : AC-3
Формат/Информация : Audio Coding 3
Расширение режима : CM (complete main)
Идентификатор кодека : A_AC3
Продолжительность : 40 м.
Вид битрейта : Постоянный
Битрейт : 448 Кбит/сек
Каналы : 6 каналов
Расположение каналов : Front: L C R, Side: L R, LFE
Частота : 48,0 КГц
Битовая глубина : 16 бит
Метод сжатия : С потерями
Размер потока : 130 Мбайт (5%)
Заголовок : AC3, 6ch, 448kbps, 48kHz
Язык : Russian
Аудио #2
Идентификатор : 3
Формат : AC-3
Формат/Информация : Audio Coding 3
Расширение режима : CM (complete main)
Идентификатор кодека : A_AC3
Продолжительность : 40 м.
Вид битрейта : Постоянный
Битрейт : 640 Кбит/сек
Каналы : 6 каналов
Расположение каналов : Front: L C R, Side: L R, LFE
Частота : 48,0 КГц
Битовая глубина : 16 бит
Метод сжатия : С потерями
Размер потока : 186 Мбайт (8%)
Заголовок : AC3, 6ch, 640kbps, 48kHz
Язык : English
Меню
00:00:00.000 : :01
00:06:44.738 : :02
00:10:22.163 : :03
00:14:43.508 : :04
00:20:04.870 : :05
00:25:03.085 : :06
00:31:28.178 : :07
00:37:36.546 : :08

Скриншоты


Мои раздачи в анаглифе
Благодарности релизеру (3)

Торрент:

Статус:

Размер:

Зарегистрирован   [ 2011-12-17 01:56 ]

проверено

2.37 GB