Торренты   
 
 

 

Мегамозг / Megamind 3D (Том МакГрат) [2010 г., HDRip 720p, OverUnder]

Рейтинг 3D:
30 голосов
8.5
Рейтинг фильма:
35 голосов
8.8
 
Вы должны быть авторизированы,
чтобы ставить оценки


Мегамозг / Megamind 3D
Год выпуска: 2010
Страна: США
Жанр: Мультфильм, Фантастика, Боевик, Комедия, Семейный
Продолжительность: 01:35:33
Перевод: Профессиональный (полное дублирование)
Режиссер: Том МакГрат
В ролях: Илья Исаев, Наталья Грачева, Даниель Кайгермазов, Александр Гаврилин, Денис Беспалый, Александр Новиков.
Описание: Мегамозг — самый гениальный и самый неудачливый злодей в мире. Вот уже много лет он пытается покорить Метро-Сити самыми разнообразными способами. Но каждая такая попытка кончается провалом по вине супергероя по имени Метро-Мэн. Но злодей убивает супергероя, и внезапно Мегамозг лишается цели в жизни. Суперзлодей без супергероя.
Единственный выход — создать нового супергероя, которого он называет Титаном. Но Титан решает, что быть злодеем куда интереснее. Вот только ему не хочется править миром, он желает его уничтожить. Мегамозгу предстоит непростой выбор. Сможет ли злой гений стать героем — спасителем человечества.
Формат 3d: OverUnder
Видео: AVC, h264, 1280x1088, 23,976 кадр/сек, 5 174 Kbps
Аудио: Rus, AC-3, 6 каналов, 640 Кбит/сек, 48,0 КГц
Аудио: Eng, AC-3, 6 каналов, 640 Кбит/сек, 48,0 КГц

Скриншоты



me

$ mediainfo Megamind.3d.OverUnder.720p.mkv
General
Unique ID : 251448347404716270287588224420640638504 (0xBD2B30AF333FB607EB3E30891A5AC628)
Complete name : Megamind.3d.OverUnder.720p.mkv
Format : Matroska
File size : 4.40 GiB
Duration : 1h 35mn
Overall bit rate : 6 585 Kbps
Encoded date : UTC 2011-05-19 16:19:17
Writing application : mkvmerge v4.7.0 ('Just Like You Imagined') сборка от May 15 2011 13:46:34
Writing library : libebml v1.2.0 + libmatroska v1.1.0
Video
ID : 1
Format : AVC
Format/Info : Advanced Video Codec
Format profile : High@L5.0
Format settings, CABAC : Yes
Format settings, ReFrames : 16 frames
Muxing mode : Header stripping
Codec ID : V_MPEG4/ISO/AVC
Duration : 1h 35mn
Bit rate : 5 174 Kbps
Width : 1 280 pixels
Height : 1 088 pixels
Display aspect ratio : 1.176
Frame rate mode : Constant
Frame rate : 23.976 fps
Color space : YUV
Chroma subsampling : 4:2:0
Bit depth : 8 bits
Scan type : Progressive
Bits/(Pixel*Frame) : 0.155
Stream size : 3.45 GiB (79%)
Writing library : x264 core 115
Encoding settings : cabac=1 / ref=16 / deblock=1:0:0 / analyse=0x3:0x133 / me=umh / subme=10 / psy=1 / psy_rd=1.00:0.00 / mixed_ref=1 / me_range=24 / chroma_me=1 / trellis=2 / 8x8dct=1 / cqm=0 / deadzone=21,11 / fast_pskip=1 / chroma_qp_offset=-2 / threads=3 / sliced_threads=0 / nr=0 / decimate=1 / interlaced=0 / bluray_compat=0 / constrained_intra=0 / bframes=8 / b_pyramid=2 / b_adapt=2 / b_bias=0 / direct=3 / weightb=1 / open_gop=0 / weightp=2 / keyint=250 / keyint_min=23 / scenecut=40 / intra_refresh=0 / rc_lookahead=60 / rc=crf / mbtree=1 / crf=18.0 / qcomp=0.60 / qpmin=0 / qpmax=69 / qpstep=4 / ip_ratio=1.40 / aq=1:1.00
Language : English
Audio #1
ID : 2
Format : AC-3
Format/Info : Audio Coding 3
Mode extension : CM (complete main)
Muxing mode : Header stripping
Codec ID : A_AC3
Duration : 1h 35mn
Bit rate mode : Constant
Bit rate : 640 Kbps
Channel(s) : 6 channels
Channel positions : Front: L C R, Side: L R, LFE
Sampling rate : 48.0 KHz
Bit depth : 16 bits
Compression mode : Lossy
Delay relative to video : 24ms
Stream size : 437 MiB (10%)
Title : Лицензия
Language : Russian
Audio #2
ID : 3
Format : AC-3
Format/Info : Audio Coding 3
Mode extension : CM (complete main)
Muxing mode : Header stripping
Codec ID : A_AC3
Duration : 1h 35mn
Bit rate mode : Constant
Bit rate : 640 Kbps
Channel(s) : 6 channels
Channel positions : Front: L C R, Side: L R, LFE
Sampling rate : 48.0 KHz
Bit depth : 16 bits
Compression mode : Lossy
Stream size : 437 MiB (10%)
Language : English
Остальные раздачи этого фильма (4)
Благодарности релизеру (1)

Торрент:

Статус:

Размер:

Зарегистрирован   [ 2011-05-19 23:00 ]

проверено

4.4 GB

 
 Мнение о фильме (2)





Мульт шикарен. Графика, звуковые композиции и особенно юмор, лёгкий и понятный. Мульт для всей семьи. Захочется ещё на раз посмотреть.
 

Долго не хотела качать этот мультик.... А ЗРЯ, очень понравился, даже не ожидала. Оказался интересным,динамичным и лёгким для просмотра. СПАСИБО РЕЛИЗЁРУ!!!!!!!!!!!!!!!!