Торренты   
 
 

 

Затаившиеся / Hidden 3D (Антуан Томас / Antoine Thomas) [2011, ужасы, триллер, DVDRip-AVC] Anaglyph, red'cyan

Рейтинг 3D:
1 голосов
8.0
Рейтинг фильма:
Пока никто не голосовал
 
Вы должны быть авторизированы,
чтобы ставить оценки


Затаившиеся / Hidden 3D
-Страна: Канада, Италия
Жанр: ужасы, триллер
Год выпуска: 2011
Продолжительность: 01:18:13-Перевод: Профессиональный (дублированный) Лицензия
Субтитры: НЕТ-Режиссер: Антуан Томас / Antoine Thomas-В ролях: Шон Клемент, Симонетта Солдер, Джордан Хэйес, Джейсон Бликер, Бьянка Мерджел, Девон Бостик, Эллиотт Ларсон-Гилмор, Аллан Колмэн, Кристина Розато-Описание: Компания молодых людей отправляется на выходные в опустевший монастырь, где некогда располагался загадочный медицинский центр для людей с тяжелыми зависимостями. Вскоре выясняется, что над пациентами тайно проводились бесчеловечные эксперименты, в результате которых изгнанные из людей пороки никуда не исчезли, а затаились в стенах древнего здания и ждут своего часа. Они переполнены жаждой мести и уже никого не выпустят наружу…- -Качество видео: DVDRip-AVC
Формат видео: MKV
формат 3д: Anaglyph, red'blue именно blue, а не циан-Видео: AVC; 720x576@1024x576 (16:9); 25.000 fps; 1950 kbps
Аудио: AC3 Dolby Digital; 48 KHz; 448 kb/s; 3/2 (L,C,R,l,r) + LFE ch

MediaInfo

Format : Matroska
File size : 1.31 GiB
Duration : 1h 18mn
Overall bit rate : 2 399 Kbps
Encoded date : UTC 2011-05-20 04:52:41
Writing application : mkvmerge v2.9.7 ('Tenderness') built on Jul 1 2009 18:43:35
Writing library : libebml v0.7.7 + libmatroska v0.8.1
Video
ID : 1
Format : AVC
Format/Info : Advanced Video Codec
Format profile : High@L3.1
Format settings, CABAC : Yes
Format settings, ReFrames : 8 frames
Codec ID : V_MPEG4/ISO/AVC
Duration : 1h 18mn
Bit rate : 1 950 Kbps
Width : 720 pixels
Height : 576 pixels
Display aspect ratio : 16:9
Original display aspect ratio : 5:4
Frame rate : 25.000 fps
Standard : PAL
Color space : YUV
Chroma subsampling : 4:2:0
Bit depth : 8 bits
Scan type : Progressive
Bits/(Pixel*Frame) : 0.188
Stream size : 1.04 GiB (79%)
Writing library : x264 core 115 r1995 c1e60b9
Encoding settings : cabac=1 / ref=8 / deblock=1:-2:-1 / analyse=0x3:0x113 / me=esa / subme=8 / psy=1 / psy_rd=1.00:0.15 / mixed_ref=1 / me_range=16 / chroma_me=1 / trellis=2 / 8x8dct=1 / cqm=0 / deadzone=21,11 / fast_pskip=1 / chroma_qp_offset=-3 / threads=6 / sliced_threads=0 / nr=0 / decimate=1 / interlaced=0 / bluray_compat=0 / constrained_intra=0 / bframes=6 / b_pyramid=0 / b_adapt=2 / b_bias=0 / direct=3 / weightb=1 / open_gop=0 / weightp=2 / keyint=250 / keyint_min=25 / scenecut=40 / intra_refresh=0 / rc_lookahead=40 / rc=2pass / mbtree=1 / bitrate=1950 / ratetol=1.0 / qcomp=0.60 / qpmin=10 / qpmax=51 / qpstep=4 / cplxblur=20.0 / qblur=0.5 / ip_ratio=1.40 / aq=1:1.00
Language : Russian
Audio
ID : 2
Format : AC-3
Format/Info : Audio Coding 3
Mode extension : CM (complete main)
Codec ID : A_AC3
Duration : 1h 18mn
Bit rate mode : Constant
Bit rate : 448 Kbps
Channel(s) : 6 channels
Channel positions : Front: L C R, Side: L R, LFE
Sampling rate : 48.0 KHz
Bit depth : 16 bits
Compression mode : Lossy
Stream size : 250 MiB (19%)
Language : Russian

Скриншоты

Благодарности релизеру (0)

Торрент:

Статус:

Размер:

Зарегистрирован   [ 2011-05-20 08:58 ]

проверено

1.31 GB