Торренты   
 
 


Видео-экскурсии по миру в 3D (2) / 3D Destinations (2) [1080i, Anamorph SideBySide]

Рейтинг 3D:
1 голосов
6.0
Рейтинг фильма:
1 голосов
8.0
 
Вы должны быть авторизированы,
чтобы ставить оценки


Видео-экскурсии по миру в 3D (2) / 3D Destinations (2)

Жанр: Видовой
Общая продолжительность: 01:01:31
(15:05 + 15:10 + 16:04 + 15:12)
Перевод: Отсутствует
Язык: Английский
Описание: Вторая часть из серии Destinations 3d - ещё четыре видео-экскурсии:
5. Иордания.
6. Канчанабури (Kanchanabury, Thailand).
7. Масада и Мёртвое море (Израиль).
8. Рим.
Первая часть
Третья часть
Четвёртая часть
Дополнительная информация: Красивые ролики, 3д в порядке.
Проверено на ТВ-ЮСБ Самсунг.
Формат 3d: Anamorph SideBySide
Порядок ракурсов: Параллельная пара
Качество: HDTV-Rip
Контейнер: ts
Видео: AVC / 1920х1080i / 25 fps / 7 261 Kbps
Аудио: mp2 / 2 ch / 384 Kbps / 48 KHz

MediaInfo первого файла (остальные практически идентичны)

General
ID : 1 (0x1)
Complete name : F:\Downloads\Destinations3d-2\Destinations3d.Jordan.ts
Format : MPEG-TS
Format/Info : Advanced Video Codec
File size : 868 MiB
Duration : 15mn 5s
Overall bit rate : 8 047 Kbps
Maximum Overall bit rate : 35.5 Mbps
Video
ID : 4113 (0x1011)
Menu ID : 1 (0x1)
Format : AVC
Format/Info : Advanced Video Codec
Format profile : Main@L4.0
Format settings, CABAC : Yes
Format settings, ReFrames : 4 frames
Format settings, GOP : M=1, N=36
Codec ID : 27
Duration : 15mn 5s
Bit rate mode : Variable
Bit rate : 7 261 Kbps
Maximum bit rate : 40.0 Mbps
Width : 1 920 pixels
Height : 1 080 pixels
Display aspect ratio : 16:9
Frame rate : 25.000 fps
Standard : Component
Color space : YUV
Chroma subsampling : 4:2:0
Bit depth : 8 bits
Scan type : Interlaced
Scan order : Top Field First
Bits/(Pixel*Frame) : 0.140
Stream size : 783 MiB (90%)
Color primaries : BT.709-5, BT.1361, IEC 61966-2-4, SMPTE RP177
Transfer characteristics : BT.709-5, BT.1361
Matrix coefficients : BT.709-5, BT.1361, IEC 61966-2-4 709, SMPTE RP177
Audio
ID : 4352 (0x1100)
Menu ID : 1 (0x1)
Format : MPEG Audio
Format version : Version 1
Format profile : Layer 2
Codec ID : 4
Duration : 15mn 5s
Bit rate mode : Constant
Bit rate : 384 Kbps
Channel(s) : 2 channels
Sampling rate : 48.0 KHz
Compression mode : Lossy
Stream size : 41.4 MiB (5%)
Language : English

Скриншоты


Благодарности релизеру (5)

Торрент:

Статус:

Размер:

Зарегистрирован   [ 2011-05-20 21:32 ]

проверено

3.46 GB