Торренты   
 
 


Зелёный Шершень 3Д / The Green Hornet 3D (Мишель Гондри / Michel Gondry) [2011 г., 720p, Anaglyph, red'cyan]

Рейтинг 3D:
Пока никто не голосовал
Рейтинг фильма:
Пока никто не голосовал
 
Вы должны быть авторизированы,
чтобы ставить оценки


-Зелёный Шершень 3Д
The Green Hornet 3D- Год выпуска: 2011
Страна: США
Жанр: Боевик, комедия, криминал
Продолжительность: 01:58:53
Перевод: Профессиональный (полное дублирование)
Режиссер: Мишель Гондри / Michel Gondry
В ролях: Сет Роген, Джей Чоу, Кристоф Вальц, Кэмерон Диаз, Том Уилкинсон, Дэвид Харбор, Эдвард Джеймс Олмос, Джэми Харрис, Чад Коулмэн, Эдвард Ферлонг и др.
Описание: Сын медиа-магната «прожигает» свою жизнь в вечных пьянках и бесчисленных случайных связях. Но после неожиданной смерти отца он наконец осознает бесцельность своего существования и решает все изменить. Вместе с другом они становятся супергероями, которые борются с преступностью ее же методами, совершенно не считаясь с законом…-Релиз: -Формат: MKV
Видео:
AVC; 1280x720; 16:9; 23,976 кадр/сек; 4294 Кбит/сек
Аудио:
Russian; AC-3; 48,0 КГц; 384 Кбит/сек; 6ch(Front: L C R, Side: L R, LFE)
English; AC-3; 48,0 КГц; 384 Кбит/сек; 6ch(Front: L C R, Side: L R, LFE)
Субтитры:
Русские (форсированные)
Английские

Формат 3d: Anaglyph
Цвета очков:

MediaInfo

Общее
Уникальный идентификатор : 247708035244688316861508422313064890432 (0xBA5AD50E9E48401EBDFB01ABBEF18040)
Полное имя : The.Green.Hornet.2011.3D.AVC.720p_AnRC.Rus.Eng.3D-RuGroup.mkv
Формат : Matroska
Размер файла : 4,29 Гбайт
Продолжительность : 1 ч. 58 м.
Общий поток : 5165 Кбит/сек
Дата кодирования : UTC 2011-05-20 20:15:45
Программа кодирования : mkvmerge v3.4.0 ('Rapunzel') сборка от May 15 2010 09:38:20
Библиотека кодирования : libebml v0.8.0 + libmatroska v0.9.0
Видео
Идентификатор : 1
Формат : AVC
Формат/Информация : Advanced Video Codec
Профиль формата : High@L4.1
Параметр CABAC формата : Да
Параметр ReFrames формата : 4 кадра
Идентификатор кодека : V_MPEG4/ISO/AVC
Продолжительность : 1 ч. 58 м.
Битрейт : 4294 Кбит/сек
Ширина : 1280 пикс.
Высота : 720 пикс.
Соотношение сторон : 16:9
Частота кадров : 23,976 кадр/сек
Цветовое пространство : YUV
Подвыборка цветности : 4:2:0
Битовая глубина : 8 бит
Тип развёртки : Прогрессивная
Бит/(Пиксели*Кадры) : 0.194
Размер потока : 3,57 Гбайт (83%)
Заголовок : The.Green.Hornet.2011.3D.AVC.720p_AnRC.Rus.Eng.3D-RuGroup
Библиотека кодирования : x264 core 115 r1947 b5a8ad7
Настройки программы : cabac=1 / ref=4 / deblock=1:-3:-3 / analyse=0x3:0x113 / me=umh / subme=9 / psy=1 / psy_rd=1.00:0.15 / mixed_ref=1 / me_range=16 / chroma_me=1 / trellis=2 / 8x8dct=1 / cqm=0 / deadzone=21,11 / fast_pskip=1 / chroma_qp_offset=-3 / threads=3 / sliced_threads=0 / nr=0 / decimate=1 / interlaced=0 / bluray_compat=0 / constrained_intra=0 / bframes=6 / b_pyramid=0 / b_adapt=2 / b_bias=0 / direct=3 / weightb=1 / open_gop=0 / weightp=2 / keyint=250 / keyint_min=23 / scenecut=40 / intra_refresh=0 / rc_lookahead=40 / rc=crf / mbtree=1 / crf=18.0 / qcomp=0.70 / qpmin=0 / qpmax=69 / qpstep=4 / ip_ratio=1.40 / aq=1:1.00
Аудио #1
Идентификатор : 2
Формат : AC-3
Формат/Информация : Audio Coding 3
Расширение режима : CM (complete main)
Идентификатор кодека : A_AC3
Продолжительность : 1 ч. 58 м.
Вид битрейта : Постоянный
Битрейт : 384 Кбит/сек
Каналы : 6 каналов
Расположение каналов : Front: L C R, Side: L R, LFE
Частота : 48,0 КГц
Битовая глубина : 16 бит
Метод сжатия : С потерями
Размер потока : 327 Мбайт (7%)
Заголовок : AC3, 6ch, 384kbps, 48kHz (Дубляж)
Язык : Russian
Аудио #2
Идентификатор : 3
Формат : AC-3
Формат/Информация : Audio Coding 3
Расширение режима : CM (complete main)
Идентификатор кодека : A_AC3
Продолжительность : 1 ч. 58 м.
Вид битрейта : Постоянный
Битрейт : 384 Кбит/сек
Каналы : 6 каналов
Расположение каналов : Front: L C R, Side: L R, LFE
Частота : 48,0 КГц
Битовая глубина : 16 бит
Метод сжатия : С потерями
Размер потока : 327 Мбайт (7%)
Заголовок : AC3, 6ch, 384kbps, 48kHz (Оригинал)
Язык : English
Текст #1
Идентификатор : 4
Формат : UTF-8
Идентификатор кодека : S_TEXT/UTF8
Идентификатор кодека/Информация : UTF-8 Plain Text
Язык : Russian
Текст #2
Идентификатор : 5
Формат : UTF-8
Идентификатор кодека : S_TEXT/UTF8
Идентификатор кодека/Информация : UTF-8 Plain Text
Язык : English
Меню
00:00:00.000 : en:Chapter01
00:07:48.343 : en:Chapter02
00:14:11.392 : en:Chapter03
00:23:06.843 : en:Chapter04
00:31:33.849 : en:Chapter05
00:40:23.879 : en:Chapter06
00:48:31.281 : en:Chapter07
00:56:27.590 : en:Chapter08
01:03:53.500 : en:Chapter09
01:13:52.951 : en:Chapter10
01:20:57.807 : en:Chapter11
01:28:38.434 : en:Chapter12
01:37:03.855 : en:Chapter13
01:44:14.118 : en:Chapter14
01:50:05.385 : en:Chapter15

Скриншоты


Мои раздачи в анаглифе
Благодарности релизеру (0)

Торрент:

Статус:

Размер:

Зарегистрирован   [ 2011-05-21 00:42 ]

проверено

4.29 GB