Торренты   
 
 


Видео-экскурсии по миру в 3D (4) / 3D Destinations (4) [1080i, Anamorph SideBySide]

Рейтинг 3D:
1 голосов
6.0
Рейтинг фильма:
1 голосов
8.0
 
Вы должны быть авторизированы,
чтобы ставить оценки


Видео-экскурсии по миру в 3D (4) / 3D Destinations (4)

Жанр: Видовой
Общая продолжительность: 00:32:34 (17:25 + 15:09)
Перевод: Отсутствует
Язык: Английский
Описание: Четвёртая часть из серии Destinations 3d - ещё две видео-экскурсии:
12. Хайфа, Израиль
13. Джайпур, Индия
Первая часть
Вторая часть
Третья часть
Формат 3d: Anamorph SideBySide
Порядок ракурсов: Параллельная пара
Качество: HDTV-Rip
Контейнер: ts
Видео: AVC / 1920х1080i / 25 fps / 7 260 Kbps
Аудио: mp2 / 2 ch / 384 Kbps / 48 KHz

MediaInfo первого файла (второй практически идентичен)

General
ID : 1 (0x1)
Complete name : F:\Downloads\Destinations3d-4\Destinations3d.Haifa.ts
Format : MPEG-TS
Format/Info : Advanced Video Codec
File size : 1 003 MiB
Duration : 17mn 25s
Overall bit rate : 8 045 Kbps
Maximum Overall bit rate : 35.5 Mbps
Video
ID : 4113 (0x1011)
Menu ID : 1 (0x1)
Format : AVC
Format/Info : Advanced Video Codec
Format profile : Main@L4.0
Format settings, CABAC : Yes
Format settings, ReFrames : 4 frames
Format settings, GOP : M=1, N=36
Codec ID : 27
Duration : 17mn 25s
Bit rate mode : Variable
Bit rate : 7 260 Kbps
Maximum bit rate : 40.0 Mbps
Width : 1 920 pixels
Height : 1 080 pixels
Display aspect ratio : 16:9
Frame rate : 25.000 fps
Standard : Component
Color space : YUV
Chroma subsampling : 4:2:0
Bit depth : 8 bits
Scan type : Interlaced
Scan order : Top Field First
Bits/(Pixel*Frame) : 0.140
Stream size : 905 MiB (90%)
Color primaries : BT.709-5, BT.1361, IEC 61966-2-4, SMPTE RP177
Transfer characteristics : BT.709-5, BT.1361
Matrix coefficients : BT.709-5, BT.1361, IEC 61966-2-4 709, SMPTE RP177
Audio
ID : 4352 (0x1100)
Menu ID : 1 (0x1)
Format : MPEG Audio
Format version : Version 1
Format profile : Layer 2
Codec ID : 4
Duration : 17mn 25s
Bit rate mode : Constant
Bit rate : 384 Kbps
Channel(s) : 2 channels
Sampling rate : 48.0 KHz
Compression mode : Lossy
Stream size : 47.9 MiB (5%)
Language : English

Скриншоты

Благодарности релизеру (6)

Торрент:

Статус:

Размер:

Зарегистрирован   [ 2011-05-23 18:08 ]

проверено

1.83 GB