Торренты   
 
 


Город в осаде 3Д / City Under Siege 3D (Бенни Чан / Benny Chan) [2010 г., OverUnder]

Рейтинг 3D:
Пока никто не голосовал
Рейтинг фильма:
Пока никто не голосовал
 
Вы должны быть авторизированы,
чтобы ставить оценки


Город в осаде 3Д / City Under Siege 3D
Год выпуска: 2010
Страна: Гонконг
Жанр: фантастика, боевик, триллер
Продолжительность: 01:51:24
Перевод: Любительский одноголосый (Laids)
Режиссер: Бенни Чан / Benny Chan
В ролях: Аарон Квок, Колин Чоу, Шу Ци, Джеки Ву, Чжан Цзинчу, Джейкоб Джи Зиэкэн
Описание: Санни, осиротевший после смерти отца — знаменитого метателя ножей, работает клоуном в цирке. Вообще Санни мечтает выступать метателем ножей, как его отец, но хозяин цирка ему особо не доверяет, да и вообще в цирке уже есть один метатель (Нгай Синг). Однажды, оказавшись на гастролях в Малайзии, Санни увязывается за другими циркачами, а те находят подземный бункер, в котором во время Второй Мировой проводили секретные эксперименты японцы.
В ней они находят ящики со странными капсулами, и заставляют Санни открыть одну из них. В первой капсуле они находят пластины золота, а затем пытаются убить Санни, и проверить остальные капсулы. Однако, в них содержался экспериментальный газ, надышавшись которого они начинают мутировать – но в то время как все потихоньку теряют человеческий облик, Санни приобретает сверхспособности, внешне оставаясь неизменным.
Формат 3d: OverUnder
Качество: BDRip, 720p
Видео: AVC, H.264, 1280x1112, 24 fps, 2.35:1, 6000 Кбит/сек
Аудио: 48 kHz, AC3 Dolby Digital, 3/2 (L,C,R,l,r) + LFE ch, 640 kbps
Cубтитры: srt (djoni7)

Media Info

Общее
Уникальный идентификатор : 185595583165899508907094791437731841170 (0x8BA068BBDC4125AA809F907AF58D4492)
Полное имя : H:\3D_Films\720p\City.Under.Siege.3D.BDRip.720p.mkv
Формат : Matroska
Размер файла : 4,89 Гбайт
Продолжительность : 1 ч. 51 м.
Общий поток : 6303 Кбит/сек
Дата кодирования : UTC 2011-05-24 17:23:25
Программа кодирования : mkvmerge v4.7.0 ('Just Like You Imagined') сборка от Apr 21 2011 01:13:14
Библиотека кодирования : libebml v1.2.0 + libmatroska v1.1.0
Видео
Идентификатор : 1
Формат : AVC
Формат/Информация : Advanced Video Codec
Профиль формата : High@L5.1
Параметр CABAC формата : Да
Параметр ReFrames формата : 7 кадров
Идентификатор кодека : V_MPEG4/ISO/AVC
Продолжительность : 1 ч. 51 м.
Битрейт : 6000 Кбит/сек
Ширина : 1280 пикс.
Высота : 1112 пикс.
Соотношение сторон : 1,151
Частота кадров : 24,000 кадр/сек
Частота кадров в оригинале : 23,976 кадр/сек
Цветовое пространство : YUV
Подвыборка цветности : 4:2:0
Битовая глубина : 8 бит
Тип развёртки : Прогрессивная
Бит/(Пиксели*Кадры) : 0.176
Размер потока : 4,50 Гбайт (92%)
Библиотека кодирования : x264 core 114 r1924 08d04a4
Настройки программы : cabac=1 / ref=8 / deblock=1:-1:-1 / analyse=0x3:0x113 / me=umh / subme=7 / psy=1 / psy_rd=1.00:0.15 / mixed_ref=1 / me_range=16 / chroma_me=1 / trellis=1 / 8x8dct=1 / cqm=0 / deadzone=21,11 / fast_pskip=1 / chroma_qp_offset=-3 / threads=3 / sliced_threads=0 / nr=0 / decimate=1 / interlaced=0 / constrained_intra=0 / bframes=7 / b_pyramid=1 / b_adapt=1 / b_bias=0 / direct=1 / weightb=1 / open_gop=0 / weightp=2 / keyint=250 / keyint_min=24 / scenecut=40 / intra_refresh=0 / rc_lookahead=40 / rc=abr / mbtree=1 / bitrate=6000 / ratetol=1.0 / qcomp=0.60 / qpmin=0 / qpmax=51 / qpstep=4 / vbv_maxrate=20000 / vbv_bufsize=50000 / nal_hrd=none / ip_ratio=1.40 / aq=1:1.00
Аудио
Идентификатор : 2
Формат : AC-3
Формат/Информация : Audio Coding 3
Расширение режима : CM (complete main)
Идентификатор кодека : A_AC3
Продолжительность : 1 ч. 51 м.
Вид битрейта : Постоянный
Битрейт : 384 Кбит/сек
Каналы : 6 каналов
Расположение каналов : Front: L C R, Side: L R, LFE
Частота : 48,0 КГц
Битовая глубина : 16 бит
Метод сжатия : С потерями
Задержка видео : 24 мс.
Размер потока : 305 Мбайт (6%)
Текст
Идентификатор : 3
Формат : UTF-8
Идентификатор кодека : S_TEXT/UTF8
Идентификатор кодека/Информация : UTF-8 Plain Text

Скриншоты







Комментарии:

1, 2  След.






Значит есть-таки 3д в этом фильме? А то я думал очередной фейк! Жаль разрешение слегка не для нас ТВ-ЮСБишников.
Tonal и скачавшие, отпишитесь, плиз, как тут 3д. Если стОит, то сделаю анаморф.
 

ash61
Это мой первый 3DBDRip, источник с 3dblurayiso.com. //спасибо Аnатоliy052 за инвайт
Незнаю фейк или нет, но конвертация однозначно, что-то около "Зеленого Шершня"//по беглому просмотру с перемотками
 

Ну студийная конвертация - это нормально! Я думал опять немецкий авто-конверт! Ладно, подождём отзывов скачавших...
 

Tonal
Увы, обычный авто конверт, причем бывали и лучше.
http://screenshotcomparison.com/comparison/54263
http://screenshotcomparison.com/comparison/54264
Я уже где то писал как проще определить авто конверт. В скопике открываете скрин, внизу жмете на глаз (моно режим), при этом открываеться один из ракурсов, затем F7 (смена ракурсов), и все видно отлично.
Второе. Tonal на будущее, обрезай полосы так, чтобы общее разрешение было кратно 16. Иначе даже на компе будут проблемы.
 

Dag13
Я как бы в курсе про кратность 16-и, но смотрел кучу рипов в которых это условие не выполняется, проблем не замечал, вот и не стал заморачиватся, на 8 делится и ладно :)
 

Tonal
Полоски в пиксель примерно с верху при просмотре не наблюдается?
 

Dag13
Не наблюдается, а какого цвета? Если черная то ее просто не видно.
 

Tonal
Обычно она идет светлыми прыгающими полосками. Но у всех по разному. А 16 потому, что ракурса два, и они накладываються друг на друга. 1112/2=556. А 556 на 8 не делится.
 

Dag13
Нет, таких полосок не видел, причем таких рипов добрая половина.
Думаю это древние суеверия :)
 

Фейк деформацией. В Обители зла 720р вертикалке такие полоски белые прыгают как технический код в аналоге.
 

причем таких рипов добрая половина
Какие например? (кроме обители)
 

Вольт
Ширина : 1280 пикс.
Высота : 1412 пикс.
Полярный экспресс
Ширина : 1280 пикс.
Высота : 1066 пикс.
Мой кровавый Валентин
Ширина : 1280 пикс.
Высота : 1412 пикс.
С этими все в порядке.
И на закуску, 1080 не делится на 16...
 

А автоконверт здесь не такой какой можно получить в TMT5, PDVD10, etc.
Походу фильм вручную был поделен на сцены относящиеся к разным типам: панорама, дальний план, статика, что-то еще... И к каждомы типу применен свой алноритм автоконверта.
 

На двух скринах разная деформация, старались хоть как то с картинкой связать, но всё равно на уровне выдавливания какой-нибудь горки или поверхности. В Тотал не знаю как а в Повер ДВД очень плохо и примитивно, аналогично сгибанию монитора в трубочку, как бы постоянный выгнутый экран, по вертикали плоско, по горизонтали цилиндром. Взять экран для проектора и выгнуть в цилиндр - будет псевдостерео, причем без очков:)
 

Tonal
Насчет выше перечисленных раздач могу сказать одно, все мы потихоньку учимся, им по полгода, первые шаги. А 1080 и не должно на 16 делится, а вот 2160 делиться. Речь идет только про вертикальную пару.
 

А 1080 и не должно на 16 делится. Речь идет только про вертикальную пару.
Раскажи это любителям вертикального анаморфа :)
//В Обители Зла на 8 не делится, логично предположить что ракурсы должны быть кратны 4-м.
 

После просмотра:
Фильм развлекательную функцию выполнил оставив больше позитивных ощущений чем негативных, такой себе зрелищный динамичный трешачок, одноразовый, а больше и не надо.
По части 3D, попытки увязать алгоритм конверсии со сценами налицо.
Сцены с равномерными движениями камеры(зум, полет, поворот, облет) получились неплохо.
В статичных сценах есть попытки выделить ближний план, иногда получается.
Сцены с одним дальним планом имеют накрученый в глубину параллакс.
В некоторых смешаных и динамичных сценах переходят почти на 2D, чтоб не было хуже. В остальных хуже. :)
На развязу финальной сцены(и еще пару моментов) похоже потратили больше усилий, пару раз по нескольку секунд похоже на 3D спецефекты.
 

и как скачать?, почему закрыли?
 

разрешение "через жопу" ни вашим ни нашим
 

Аnатоliy052
Почему же не нашим? полная вертикальная 720р стереопара(без полос).
Каждый делает же для себя, у меня проектор, а вашим да...
Анаморф готовый уже на том сайте валяется, берите и накладывайте звук.
 

Страница 1 из 2

1, 2  След.