Торренты   
 
 


Ролик DepthQ Stereoscopic в 3Д (3D) [Anamorph SideBySide]

Рейтинг 3D:
Пока никто не голосовал
Рейтинг фильма:
Пока никто не голосовал
 
Вы должны быть авторизированы,
чтобы ставить оценки


Рекламный 3D-ролик DepthQ Stereoscopic
Страна: США
Жанр: Реклама
Продолжительность: 00:04:05
Описание: Рекламный ролик компании DepthQ Stereoscopic. Просто красочный 3D ролик с хорошей глубиной и хорошим вылетом.
Контейнер: MKV
Формат 3d: Anamorph SideBySide
Порядок ракурсов: Параллельная пара
Видео: 1920х1080, 24 fps, MPEG-4, 9644 kbps
Аудио: AC3, 44.1 kHz, 2 ch, 128 kbps

MediaInfo

General
Format : Matroska
File size : 291 MiB
Duration : 4mn 5s
Overall bit rate : 9 970 Kbps
Writing application : Lavf51.12.1
Writing library : Lavf51.12.1
Video
ID : 1
Format : AVC
Format/Info : Advanced Video Codec
Format profile : Baseline@L1.3
Format settings, CABAC : No
Format settings, ReFrames : 1 frame
Format settings, GOP : M=1, N=12
Codec ID : V_MPEG4/ISO/AVC
Duration : 4mn 5s
Bit rate : 9 644 Kbps
Width : 1 920 pixels
Height : 1 080 pixels
Display aspect ratio : 16:9
Frame rate : 24.000 fps
Color space : YUV
Chroma subsampling : 4:2:0
Bit depth : 8 bits
Scan type : Progressive
Bits/(Pixel*Frame) : 0.194
Stream size : 282 MiB (97%)
Language : English
Audio
ID : 2
Format : AC-3
Format/Info : Audio Coding 3
Mode extension : CM (complete main)
Codec ID : A_AC3
Duration : 4mn 5s
Bit rate mode : Constant
Bit rate : 128 Kbps
Channel(s) : 2 channels
Channel positions : Front: L R
Sampling rate : 44.1 KHz
Bit depth : 16 bits
Compression mode : Lossy
Stream size : 3.74 MiB (1%)
Language : English

Скриншоты



Благодарности релизеру (2)

Торрент:

Статус:

Размер:

Зарегистрирован   [ 2011-05-26 18:39 ]

проверено

291 MB