Торренты   
 
 

 

Бугай / Boogie El Aceitoso (Густаво Кова / Gustavo Cova) [2009 г., 1080р, Anamorph SideBySide]

Рейтинг 3D:
2 голосов
9.5
Рейтинг фильма:
1 голосов
10
 
Вы должны быть авторизированы,
чтобы ставить оценки


Бугай / Boogie El Aceitoso
Год выпуска: 2009
Страна: Мексика, Аргентина
Жанр: мультфильм, боевик, криминал
Продолжительность: 85 мин
Перевод: Профессиональный (полное дублирование)
Режиссер: Густаво Кова / Gustavo Cova
В ролях: Пабло Эчарри, Нэнси Дуплаа, Николас Фриас, Марсело Арман, Руфино Галло, Диего Брицци, Рикардо Эланис, Лучана Фалькон, Карин Сабала, Эрнан Чьёзза...
Описание: Киллер по прозвищу Бугай начал свою карьеру во Вьетнаме, убивал черных повстанцев в Южной Африке, мочил красных в Никаргуа, глотал песок в Афганистане и Ираке. Он был на всех гребаных войнах за последние 30 лет! Раньше он убивал во имя демократии, теперь убивает за бабос!
Этот заказ должен был стать последним — убрать бывшую телку Сонни Калабриа, дона всех донов, главы мафии в Америке, которую ФБР развело дать показания против него. Дело трудное и он попросил много — 500 кусков. Чтобы хватило надолго.
Но Сонни зажал бабки и нанял молодого киллера Блэкберна по кличке Человек-Каблук, который обещал отработать за половину и убрать Бугая до кучи, чтобы не возникло конфликта интересов. И тут Бугай конкретно напрягся! Теперь его цель — выкрасть свидетельницу, любой ценой привезти ее на суд и убить всех вокруг! На его пути вырастают горы трупов, кровь льется рекой и выбитые зубы свистят над головой.
Доп. информация:Раздача обновлена, добавлен русский язык, удалены другие . Перекачайте торрент.
Формат 3d: Anamorph SideBySide
Порядок ракурсов: Параллельная пара

Скриншоты

МедиаИнфо

Общее
Уникальный идентификатор : 203679931494091634095923470899549130803 (0x993B53F223F96E63A0941EB511655033)
Полное имя : D:\Boogie.El.Aceitoso.3D.2009.ML.ENG.Dubbed.1080p.3DBD.x264.half.SBS.z-man (1).mkv
Формат : Matroska
Размер файла : 5,84 Гбайт
Продолжительность : 1 ч. 25 м.
Общий поток : 9756 Кбит/сек
Дата кодирования : UTC 2011-05-28 18:32:25
Программа кодирования : mkvmerge v4.0.0 ('The Stars were mine') сборка от Jun 11 2010 23:24:27
Библиотека кодирования : libebml v1.0.0 + libmatroska v1.0.0
Видео
Идентификатор : 1
Формат : AVC
Формат/Информация : Advanced Video Codec
Профиль формата : High@L4.1
Параметр CABAC формата : Да
Параметр ReFrames формата : 4 кадра
Идентификатор кодека : V_MPEG4/ISO/AVC
Продолжительность : 1 ч. 25 м.
Битрейт : 9114 Кбит/сек
Ширина : 1920 пикс.
Высота : 1080 пикс.
Соотношение сторон : 16:9
Частота кадров : 23,976 кадр/сек
Цветовое пространство : YUV
Подвыборка цветности : 4:2:0
Битовая глубина : 8 бит
Тип развёртки : Прогрессивная
Бит/(Пиксели*Кадры) : 0.183
Размер потока : 5,45 Гбайт (93%)
Заголовок : Boogie.El.Aceitoso.3D.2009.ML.ENG.Dubbed.1080p.3DBD.x264.half.SBS.z-man
Библиотека кодирования : x264 core 115 r1995 c1e60b9
Настройки программы : cabac=1 / ref=4 / deblock=1:-1:-1 / analyse=0x3:0x113 / me=umh / subme=7 / psy=1 / psy_rd=1.00:0.15 / mixed_ref=1 / me_range=16 / chroma_me=1 / trellis=1 / 8x8dct=1 / cqm=0 / deadzone=21,11 / fast_pskip=1 / chroma_qp_offset=-3 / threads=18 / sliced_threads=0 / nr=0 / decimate=1 / interlaced=0 / bluray_compat=0 / constrained_intra=0 / bframes=3 / b_pyramid=2 / b_adapt=1 / b_bias=0 / direct=3 / weightb=1 / open_gop=0 / weightp=2 / keyint=250 / keyint_min=23 / scenecut=40 / intra_refresh=0 / rc_lookahead=40 / rc=crf / mbtree=1 / crf=18.0 / qcomp=0.60 / qpmin=10 / qpmax=69 / qpstep=4 / ip_ratio=1.40 / aq=1:1.00
Аудио
Идентификатор : 2
Формат : AC-3
Формат/Информация : Audio Coding 3
Расширение режима : CM (complete main)
Идентификатор кодека : A_AC3
Продолжительность : 1 ч. 25 м.
Вид битрейта : Постоянный
Битрейт : 448 Кбит/сек
Каналы : 6 каналов
Расположение каналов : Front: L C R, Side: L R, LFE
Частота : 48,0 КГц
Битовая глубина : 16 бит
Метод сжатия : С потерями
Размер потока : 274 Мбайт (5%)
Язык; Русский
Благодарности релизеру (4)

Торрент:

Статус:

Размер:

Зарегистрирован   [ 2011-11-04 12:33 ]

проверено

5.84 GB