Торренты   
 
 


Бугай / Boogie El Aceitoso (Густаво Кова / Gustavo Cova) [2009 г.,HDRip, 720p, Anamorph SideBySide]

Рейтинг 3D:
Пока никто не голосовал
Рейтинг фильма:
Пока никто не голосовал
 
Вы должны быть авторизированы,
чтобы ставить оценки


Бугай / Boogie El Aceitoso
Год выпуска: 2009
Страна: Мексика, Аргентина
Жанр: мультфильм, боевик, криминал
Продолжительность: 85 мин
Перевод: Профессиональный (полное дублирование)
Режиссер: Густаво Кова / Gustavo Cova
В ролях: Пабло Эчарри, Нэнси Дуплаа, Николас Фриас, Марсело Арман, Руфино Галло, Диего Брицци, Рикардо Эланис, Лучана Фалькон, Карин Сабала, Эрнан Чьёзза...
Роли дублировали: Гоша Куценко, Елена Дробышева, Михаил Горевой, Павел Кипнис, Алексей Шатхин и др.
Описание: Киллер по прозвищу Бугай начал свою карьеру во Вьетнаме, убивал черных повстанцев в Южной Африке, мочил красных в Никаргуа, глотал песок в Афганистане и Ираке. Он был на всех гребаных войнах за последние 30 лет! Раньше он убивал во имя демократии, теперь убивает за бабос!
Этот заказ должен был стать последним — убрать бывшую телку Сонни Калабриа, дона всех донов, главы мафии в Америке, которую ФБР развело дать показания против него. Дело трудное и он попросил много — 500 кусков. Чтобы хватило надолго.
Но Сонни зажал бабки и нанял молодого киллера Блэкберна по кличке Человек-Каблук, который обещал отработать за половину и убрать Бугая до кучи, чтобы не возникло конфликта интересов. И тут Бугай конкретно напрягся! Теперь его цель — выкрасть свидетельницу, любой ценой привезти ее на суд и убить всех вокруг! На его пути вырастают горы трупов, кровь льется рекой и выбитые зубы свистят над головой.
Торрент файл перезалит,
Обновлена звуковая дорожка от ash61
Формат 3d: Anamorph SideBySide
Видео: HDRip, AVC, 1920x720, 23.976fps, 4000kbit/s

MediaInfo

Общее
Уникальный идентификатор : 184186122628465056215101190193955135583 (0x8A90F4F6D03CCC05A9EB9F8D566EE05F)
Полное имя : H:\3D_Films\Anamorph\Boogie.el.aceitoso.3D,HDRip.720p.mkv
Формат : Matroska
Размер файла : 2,67 Гбайт
Продолжительность : 1 ч. 25 м.
Общий поток : 4465 Кбит/сек
Дата кодирования : UTC 2011-05-28 16:29:13
Программа кодирования : mkvmerge v4.7.0 ('Just Like You Imagined') сборка от Apr 21 2011 01:13:14
Библиотека кодирования : libebml v1.2.0 + libmatroska v1.1.0
Видео
Идентификатор : 1
Формат : AVC
Формат/Информация : Advanced Video Codec
Профиль формата : High@L5.1
Параметр CABAC формата : Да
Параметр ReFrames формата : 7 кадров
Идентификатор кодека : V_MPEG4/ISO/AVC
Продолжительность : 1 ч. 25 м.
Битрейт : 4000 Кбит/сек
Ширина : 1920 пикс.
Высота : 720 пикс.
Соотношение сторон : 2,667
Частота кадров : 23,976 кадр/сек
Цветовое пространство : YUV
Подвыборка цветности : 4:2:0
Битовая глубина : 8 бит
Тип развёртки : Прогрессивная
Бит/(Пиксели*Кадры) : 0.121
Размер потока : 2,35 Гбайт (88%)
Библиотека кодирования : x264 core 114 r1924 08d04a4
Настройки программы : cabac=1 / ref=8 / deblock=1:-1:-1 / analyse=0x3:0x113 / me=umh / subme=7 / psy=1 / psy_rd=1.00:0.15 / mixed_ref=1 / me_range=16 / chroma_me=1 / trellis=1 / 8x8dct=1 / cqm=0 / deadzone=21,11 / fast_pskip=1 / chroma_qp_offset=-3 / threads=3 / sliced_threads=0 / nr=0 / decimate=1 / interlaced=0 / constrained_intra=0 / bframes=7 / b_pyramid=1 / b_adapt=1 / b_bias=0 / direct=1 / weightb=1 / open_gop=0 / weightp=2 / keyint=250 / keyint_min=24 / scenecut=40 / intra_refresh=0 / rc_lookahead=40 / rc=abr / mbtree=1 / bitrate=4000 / ratetol=1.0 / qcomp=0.60 / qpmin=0 / qpmax=51 / qpstep=4 / vbv_maxrate=20000 / vbv_bufsize=50000 / nal_hrd=none / ip_ratio=1.40 / aq=1:1.00
Язык : English
Аудио
Идентификатор : 2
Формат : AC-3
Формат/Информация : Audio Coding 3
Расширение режима : CM (complete main)
Идентификатор кодека : A_AC3
Продолжительность : 1 ч. 25 м.
Вид битрейта : Постоянный
Битрейт : 448 Кбит/сек
Каналы : 6 каналов
Расположение каналов : Front: L C R, Side: L R, LFE
Частота : 48,0 КГц
Битовая глубина : 16 бит
Метод сжатия : С потерями
Задержка видео : 24 мс.
Размер потока : 274 Мбайт (10%)

Скриншоты









Благодарности релизеру (0)

Торрент:

Статус:

Размер:

Зарегистрирован   [ 2011-06-01 01:27 ]

проверено

2.67 GB