Торренты   
 
 


Гномео и Джульетта / Gnomeo & Juliet (Келли Эсбёри) [2011 г.,BDRip, 1080p, Full OverUnder]

Рейтинг 3D:
Пока никто не голосовал
Рейтинг фильма:
Пока никто не голосовал
 
Вы должны быть авторизированы,
чтобы ставить оценки


Гномео и Джульетта / Gnomeo & Juliet
Год выпуска: 2011
Страна: США, Великобритания
Жанр: Мультфильм, Фэнтези, Мелодрама, Комедия
Продолжительность: 01:23:49
Перевод: Профессиональный (полное дублирование)
Режиссер: Келли Эсбёри
В ролях: Джеймс МакЭвой, Эмили Блант, Эшли Дженсен, Майкл Кейн, Мэтт Лукас, Джим Каммингс, Мэгги Смит, Джейсон Стэтхэм, Оззи Осборн, Стефен Мерчант, Джули Уолтерс, Халк Хоган.
Описание: Интерпретация пьесы Уильяма Шекспира.
Они живут бок обок. Через забор. Пока нас нет, они живут своей жизнью, веселятся, враждуют и... влюбляются.
Так случилось, что они - садовые глиняные гномики, которые враждуют с давних времен. Две семьи - Капулетти и Монтеги. Лишь однажды, молодая Джульетта (из клана Капулетти - Красных Гномов) в поисках красивого цветка случайно столкнулась с другим молодым гномом из клана Монтеги (Синие гномы) и ... влюбилась. А как можно любить врага? Вот тут то и самое место романтическим приключениям...

Формат 3d: OverUnder
Видео: AVC, h264, 1920х2160, 23,976 кадр/сек, 11,9 Мбит/сек
Аудио: Rus, AC-3, 6 каналов, 384 Кбит/сек, 48,0 КГц
Аудио: Eng, AC-3, 6 каналов, 640 Кбит/сек, 48,0 КГц

Скриншоты



me

Формат : Matroska
Размер файла : 7,70 Гбайт
Продолжительность : 1 ч. 23 м.
Общий поток : 13,2 Мбит/сек
Название фильма : Gnomio & Juliet - Encoded by 3D4U - www.3dblurayiso.com
Дата кодирования : UTC 2011-05-28 12:58:56
Программа кодирования : mkvmerge v3.4.0 ('Rapunzel') сборка от May 15 2010 09:38:20
Библиотека кодирования : libebml v0.8.0 + libmatroska v0.9.0
Видео
Идентификатор : 1
Формат : AVC
Формат/Информация : Advanced Video Codec
Профиль формата : High@L5.0
Параметр CABAC формата : Да
Параметр ReFrames формата : 4 кадры
Идентификатор кодека : V_MPEG4/ISO/AVC
Продолжительность : 1 ч. 23 м.
Битрейт : 11,9 Мбит/сек
Ширина : 1920 пикс.
Высота : 2160 пикс.
Соотношение сторон : 0,889
Частота кадров : 23,976 кадр/сек
Цветовое пространство : YUV
Подвыборка цветности : 4:2:0
Битовая глубина : 8 бит
Тип развёртки : Прогрессивная
Бит/(Пиксели*Кадры) : 0.119
Размер потока : 6,95 Гбайт (90%)
Библиотека кодирования : x264 core 115 r1995 c1e60b9
Настройки программы : cabac=1 / ref=4 / deblock=1:-2:-2 / analyse=0x3:0x113 / me=umh / subme=9 / psy=1 / psy_rd=1.00:0.00 / mixed_ref=1 / me_range=16 / chroma_me=1 / trellis=2 / 8x8dct=1 / cqm=0 / deadzone=21,11 / fast_pskip=1 / chroma_qp_offset=-3 / threads=9 / sliced_threads=0 / nr=0 / decimate=1 / interlaced=0 / bluray_compat=0 / constrained_intra=0 / bframes=6 / b_pyramid=0 / b_adapt=2 / b_bias=0 / direct=3 / weightb=1 / open_gop=0 / weightp=2 / keyint=250 / keyint_min=23 / scenecut=40 / intra_refresh=0 / rc_lookahead=40 / rc=crf / mbtree=1 / crf=18.0 / qcomp=0.60 / qpmin=0 / qpmax=69 / qpstep=4 / ip_ratio=1.40 / aq=1:1.00
Язык : English
Аудио #1
Идентификатор : 2
Формат : AC-3
Формат/Информация : Audio Coding 3
Расширение режима : CM (complete main)
Идентификатор кодека : A_AC3
Продолжительность : 1 ч. 23 м.
Вид битрейта : Постоянный
Битрейт : 384 Кбит/сек
Канал(ы) : 6 канала(ов)
Расположение каналов : Front: L C R, Side: L R, LFE
Частота : 48,0 КГц
Битовая глубина : 16 бит
Метод сжатия : С потерями
Размер потока : 230 Мбайт (3%)
Заголовок : Лицензионный
Язык : Russian
Аудио #2
Идентификатор : 3
Формат : AC-3
Формат/Информация : Audio Coding 3
Расширение режима : CM (complete main)
Идентификатор кодека : A_AC3
Продолжительность : 1 ч. 23 м.
Вид битрейта : Постоянный
Битрейт : 640 Кбит/сек
Канал(ы) : 6 канала(ов)
Расположение каналов : Front: L C R, Side: L R, LFE
Частота : 48,0 КГц
Битовая глубина : 16 бит
Метод сжатия : С потерями
Размер потока : 384 Мбайт (5%)
Заголовок : Original
Язык : English
Скриншоты сравнения http://screenshotcomparison.com/comparison/55274
Благодарности релизеру (1)

Торрент:

Статус:

Размер:

Зарегистрирован   [ 2011-05-28 21:57 ]

проверено

7.7 GB