Торренты   
 
 


Цирк дю Солей: Путешествие Человека 3D / Cirque du Soleil: Journey of Man 3D (Кейт Мелтон) [2000 г., Anamorph SideBySide]

Рейтинг 3D:
Пока никто не голосовал
Рейтинг фильма:
Пока никто не голосовал
 
Вы должны быть авторизированы,
чтобы ставить оценки


Цирк дю Солей: Путешествие Человека 3D / Cirque du Soleil: Journey of Man 3D
Год выпуска: 2000
Страна: США
Жанр: документальный фильм
Продолжительность: 00:38:57
Перевод: Отсутствует
Режиссер: Кейт Мелтон
Описание:Цирк… Атмосфера чуда и праздника витает в воздухе. Арена притягивает взгляды. И вот гаснет свет, дирижер взмахивает палочкой, оркестр берет первые такты… Представление начинается, и зал замирает в ожидании сказочного действа…
Доп. информация: Cirque du Soleil был основан в 1984 году Лалиберте и Даниэлем Готье и базируется в канадском Монреале. Компания насчитывает более 4 тысяч человек, работающих в разных труппах, что позволяет давать представления в нескольких точках мира одновременно. Cirque du Soleil создал новый жанр, в котором сочетаются театр, хореография, акробатика. В спектаклях цирка никогда не задействовались животные.Cirque du Soleil отличается способностью чутко реагировать на происходящее в мире - так, в следующем году он представит шоу, посвященное жизни и творчеству Майкла Джексона. Кроме того, создатель цирка Ги Лалиберте старается не упускать новые рынки, будь то 3D- кинематограф или страны, где труппа может получить зрительское признание.
Формат 3d: Anamorph SideBySide
Порядок ракурсов: Параллельная пара
Видео: 1920x1080, 23.976 fps, AVC, 14.3 Мбит/сек
Аудио: DTS, 48 kHz, 5 ch, 1510 kbps

Скриншоты

Медиа Инфо

Общее
Уникальный идентификатор : 246686021104515898974614072122943282468 (0xB995FFDE9F3E92EE890EFC21D1391D24)
Полное имя : D:\торрент файлы\CIRQUE.DU.SOLEIL.3D.HALF.SBS.3D4ALL.mkv
Формат : Matroska
Размер файла : 4,38 Гбайт
Продолжительность : 38 м.
Общий поток : 16,1 Мбит/сек
Название фильма : CIRQUE_DU_SOLEIL_3D.Title1.Bluray3DRip
Дата кодирования : UTC 2011-05-29 12:42:15
Программа кодирования : mkvmerge v4.0.0 ('The Stars were mine') built on Jun 6 2010 16:18:42
Библиотека кодирования : libebml v1.0.0 + libmatroska v1.0.0
Видео
Идентификатор : 1
Формат : AVC
Формат/Информация : Advanced Video Codec
Профиль формата : High@L4.1
Параметр CABAC формата : Да
Параметр ReFrames формата : 2 кадра
Параметры GOP формата : M=1, N=22
Идентификатор кодека : V_MPEG4/ISO/AVC
Продолжительность : 38 м.
Вид битрейта : Переменный
Битрейт : 14,3 Мбит/сек
Максимальный битрейт : 30,0 Мбит/сек
Ширина : 1920 пикс.
Высота : 1080 пикс.
Соотношение сторон : 16:9
Частота кадров : 23,976 кадр/сек
Цветовое пространство : YUV
Подвыборка цветности : 4:2:0
Битовая глубина : 8 бит
Тип развёртки : Прогрессивная
Бит/(Пиксели*Кадры) : 0.287
Размер потока : 3,88 Гбайт (89%)
Библиотека кодирования : x264 core
Основные цвета : BT.709-5, BT.1361, IEC 61966-2-4, SMPTE RP177
Характеристики трансфера : BT.709-5, BT.1361
Коэффициенты матрицы : BT.709-5, BT.1361, IEC 61966-2-4 709, SMPTE RP177
Аудио
Идентификатор : 2
Формат : DTS
Формат/Информация : Digital Theater Systems
Идентификатор кодека : A_DTS
Продолжительность : 38 м.
Вид битрейта : Постоянный
Битрейт : 1510 Кбит/сек
Каналы : 5 каналов
Расположение каналов : Front: L C R, Side: L R
Частота : 48,0 КГц
Битовая глубина : 24 бит
Метод сжатия : С потерями
Размер потока : 421 Мбайт (9%)
Язык : English
Благодарности релизеру (0)

Торрент:

Статус:

Размер:

Зарегистрирован   [ 2011-05-30 20:40 ]

© закрыто правообладателем

4.38 GB