Торренты   
 
 

 

Бугай / Boogie, el aceitoso [2009 г, 1080p, Anamorph OverUnder]

Рейтинг 3D:
1 голосов
7.0
Рейтинг фильма:
1 голосов
8.0
 
Вы должны быть авторизированы,
чтобы ставить оценки


Бугай / Boogie, el aceitoso
Год выпуска: 2009
Страна: Мексика, Аргентина (Illusion Studios, Proceso)
Жанр: Мультфильм, Боевик, Криминал
Продолжительность: 01:25:37
Перевод: Профессиональный (полное дублирование)
Режиссер: Густаво Кова / Gustavo Cova
Роли озвучивали: Пабло Эчарри, Нэнси Дуплаа, Николас Фриас, Марсело Арман, Руфино Галло, Диего Брицци, Рикардо Эланис, Лучана Фалькон, Карин Сабала, Эрнан Чьёзза
Роли дублировали: Гоша Куценко, Елена Дробышева, Михаил Горевой, Павел Кипнис, Алексей Шатхин, Александр Новиков, Ольга Голованова, Елена Муромцева
Описание: Киллер по прозвищу Бугай начал свою карьеру во Вьетнаме, убивал черных повстанцев в Южной Африке, мочил красных в Никаргуа, глотал песок в Афганистане и Ираке. Он был на всех гребаных войнах за последние 30 лет! Раньше он убивал во имя демократии, теперь убивает за бабос!
Этот заказ должен был стать последним — убрать бывшую телку Сонни Калабриа, дона всех донов, главы мафии в Америке, которую ФБР развело дать показания против него. Дело трудное и он попросил много — 500 кусков. Чтобы хватило надолго.
Но Сонни зажал бабки и нанял молодого киллера Блэкберна по кличке Человек-Каблук, который обещал отработать за половину и убрать Бугая до кучи, чтобы не возникло конфликта интересов. И тут Бугай конкретно напрягся! Теперь его цель — выкрасть свидетельницу, любой ценой привезти ее на суд и убить всех вокруг! На его пути вырастают горы трупов, кровь льется рекой и выбитые зубы свистят над головой.
Доп.информация: Полный синхрон!
Для желающих, отдельно прикреплена аудио-дорожка русского дубляжа (та же, что и вшита в фильм) - 274 МБ.
Релиз:
Формат 3d: Anamorph OverUnder
Качество: BDrip
Контейнер: MKV
Видео: AVC / 1920х1080p / 23,976 fps / 6 586 Kbps
Аудио#1: Русский / AC3 / 6 ch / 448 Kbps / 48 KHz
Аудио#2: Испанский / AC3 / 6 ch / 640 kbps / 48 KHz

MediaInfo

General
UniqueID : 203555171375234583965011639314383919249 (0x99234CCC0E4711649C3A60FCCB9C5891)
Complete name : F:\Downloads\Boogie\Boogie.BD3Drip.HalfOU.Ash61.mkv
Format : Matroska
File size : 4.68 GiB
Duration : 1h 25mn
Overall bit rate : 7 830 Kbps
Encoded date : UTC 2011-05-30 20:10:31
Writing application : mkvmerge v3.4.0 ('Rapunzel') сборка от May 15 2010 09:38:20
Writing library : libebml v0.8.0 + libmatroska v0.9.0
Video
ID : 1
Format : AVC
Format/Info : Advanced Video Codec
Format profile : High@L4.1
Format settings, CABAC : Yes
Format settings, ReFrames : 4 frames
Codec ID : V_MPEG4/ISO/AVC
Duration : 1h 25mn
Bit rate : 6 586 Kbps
Width : 1 920 pixels
Height : 1 080 pixels
Display aspect ratio : 0.889
Original display aspect ratio : 16:9
Frame rate : 23.976 fps
Color space : YUV
Chroma subsampling : 4:2:0
Bit depth : 8 bits
Scan type : Progressive
Bits/(Pixel*Frame) : 0.132
Stream size : 3.94 GiB (84%)
Title : Rip by Ash61
Writing library : x264 core 113 r1884 7313bb5
Encoding settings : cabac=1 / ref=4 / deblock=1:-1:-1 / analyse=0x3:0x113 / me=umh / subme=9 / psy=1 / psy_rd=1.00:0.15 / mixed_ref=1 / me_range=16 / chroma_me=1 / trellis=2 / 8x8dct=1 / cqm=0 / deadzone=21,11 / fast_pskip=1 / chroma_qp_offset=-3 / threads=3 / sliced_threads=0 / nr=0 / decimate=1 / interlaced=0 / constrained_intra=0 / bframes=4 / b_pyramid=2 / b_adapt=2 / b_bias=0 / direct=3 / weightb=1 / open_gop=0 / weightp=2 / keyint=250 / keyint_min=23 / scenecut=40 / intra_refresh=0 / rc_lookahead=40 / rc=crf / mbtree=1 / crf=19.0 / qcomp=0.60 / qpmin=0 / qpmax=69 / qpstep=4 / ip_ratio=1.40 / aq=1:1.00
Audio #1
ID : 2
Format : AC-3
Format/Info : Audio Coding 3
Mode extension : CM (complete main)
Codec ID : A_AC3
Duration : 1h 25mn
Bit rate mode : Constant
Bit rate : 448 Kbps
Channel(s) : 6 channels
Channel positions : Front: L C R, Side: L R, LFE
Sampling rate : 48.0 KHz
Bit depth : 16 bits
Compression mode : Lossy
Stream size : 274 MiB (6%)
Title : Дубляж. Адаптирован by Ash61
Language : Russian
Audio #2
ID : 3
Format : AC-3
Format/Info : Audio Coding 3
Mode extension : CM (complete main)
Codec ID : A_AC3
Duration : 1h 25mn
Bit rate mode : Constant
Bit rate : 640 Kbps
Channel(s) : 6 channels
Channel positions : Front: L C R, Side: L R, LFE
Sampling rate : 48.0 KHz
Bit depth : 16 bits
Compression mode : Lossy
Stream size : 392 MiB (8%)
Title : Original - Spanish
Language : Spanish
Menu
00:00:00.000 : en: 01
00:05:26.535 : en: 02
00:07:50.470 : en: 03
00:11:57.884 : en: 04
00:15:31.305 : en: 05
00:20:10.418 : en: 06
00:24:51.115 : en: 07
00:31:49.908 : en: 08
00:38:54.832 : en: 09
00:45:43.741 : en: 10
00:51:13.320 : en: 11
00:56:56.663 : en: 12
01:03:21.339 : en: 13
01:09:46.391 : en: 14
01:16:09.190 : en: 15
01:22:19.143 : en: 16

Скриншоты


Лог кодирования

Благодарности релизеру (7)

Торрент:

Статус:

Размер:

Зарегистрирован   [ 2011-05-31 02:26 ]

проверено

4.95 GB