Торренты   
 
 

 

IMAX. Легенды неба / IMAX. Legends of Flight [2010 г, 1080p, BDrip, Anamorph OverUnder]

Рейтинг 3D:
15 голосов
7.9
Рейтинг фильма:
16 голосов
8.1
 
Вы должны быть авторизированы,
чтобы ставить оценки


IMAX. Легенды неба / IMAX. Legends of Flight
Год выпуска: 2010
Страна: США
Жанр: Документальный
Продолжительность: 00:44:29
Перевод: Одноголосый закадровый (Евгений Малуха)
Режиссер: Стивен Лоу / Stephen Low
Описание: Фильм о создании современных самолётов.
Доп. информация: За перевод большое спасибо HDCLUB, всем пользователям, профинансировавшим проект по озвучке, студии "Омикрон", ну и конечно же лично Евгению Малухе!
Релиз:
Формат 3d: Anamorph OverUnder
Качество: BDrip
Контейнер: MKV
Видео: AVC / 1920х1080p / 23,976 fps / 11.4 Mbps
Аудио#1: Русский / AC3 / 48 KHz / 5.1 ch / 640 Kbps
Аудио#2: Английский / AC3 / 48 KHz / 5.1 ch / 640 Kbps

MediaInfo

General
Unique ID : 212519739385105310419437685350198703331 (0x9FE1D01FD19536318DA36CF50D6874E3)
Complete name : F:\Downloads\Imax.LegendsOfFlight3D.halfOU.AC3.3D-RuGroup.mkv
Format : Matroska
File size : 4.02 GiB
Duration : 44mn 30s
Overall bit rate : 12.9 Mbps
Movie name : IMAX. Legends Of Flight (rip by Ash61)
Encoded date : UTC 2011-08-04 10:48:12
Writing application : mkvmerge v3.4.0 ('Rapunzel') сборка от May 15 2010 09:38:20
Writing library : libebml v0.8.0 + libmatroska v0.9.0
Video
ID : 1
Format : AVC
Format/Info : Advanced Video Codec
Format profile : High@L4.1
Format settings, CABAC : Yes
Format settings, ReFrames : 4 frames
Format settings, GOP : M=1, N=32
Codec ID : V_MPEG4/ISO/AVC
Duration : 44mn 30s
Bit rate : 11.4 Mbps
Width : 1 920 pixels
Height : 1 080 pixels
Display aspect ratio : 16:9
Frame rate : 23.976 fps
Color space : YUV
Chroma subsampling : 4:2:0
Bit depth : 8 bits
Scan type : Progressive
Bits/(Pixel*Frame) : 0.229
Stream size : 3.54 GiB (88%)
Title : Rip by Ash61
Writing library : x264 core 113 r1884 7313bb5
Encoding settings : cabac=1 / ref=4 / deblock=1:-1:-1 / analyse=0x3:0x113 / me=umh / subme=9 / psy=1 / psy_rd=1.00:0.15 / mixed_ref=1 / me_range=16 / chroma_me=1 / trellis=2 / 8x8dct=1 / cqm=0 / deadzone=21,11 / fast_pskip=1 / chroma_qp_offset=-3 / threads=3 / sliced_threads=0 / nr=0 / decimate=1 / interlaced=0 / constrained_intra=0 / bframes=4 / b_pyramid=2 / b_adapt=2 / b_bias=0 / direct=3 / weightb=1 / open_gop=0 / weightp=2 / keyint=250 / keyint_min=23 / scenecut=40 / intra_refresh=0 / rc_lookahead=40 / rc=crf / mbtree=1 / crf=18.0 / qcomp=0.60 / qpmin=0 / qpmax=69 / qpstep=4 / ip_ratio=1.40 / aq=1:1.00
Audio #1
ID : 2
Format : AC-3
Format/Info : Audio Coding 3
Mode extension : CM (complete main)
Codec ID : A_AC3
Duration : 44mn 30s
Bit rate mode : Constant
Bit rate : 640 Kbps
Channel(s) : 6 channels
Channel positions : Front: L C R, Side: L R, LFE
Sampling rate : 48.0 KHz
Bit depth : 16 bits
Compression mode : Lossy
Stream size : 204 MiB (5%)
Title : AVO - Евгений Малуха (Омикрон)
Language : Russian
Audio #2
ID : 3
Format : AC-3
Format/Info : Audio Coding 3
Mode extension : CM (complete main)
Codec ID : A_AC3
Duration : 44mn 30s
Bit rate mode : Constant
Bit rate : 640 Kbps
Channel(s) : 6 channels
Channel positions : Front: L C R, Side: L R, LFE
Sampling rate : 48.0 KHz
Bit depth : 16 bits
Compression mode : Lossy
Stream size : 204 MiB (5%)
Language : English
Menu
00:00:00.000 : en:01
00:01:13.865 : en:02
00:02:57.761 : en:03
00:04:35.734 : en:04
00:05:49.349 : en:05
00:08:00.355 : en:06
00:09:54.886 : en:07
00:12:02.180 : en:08
00:14:21.944 : en:09
00:17:44.063 : en:10
00:20:55.880 : en:11
00:22:37.773 : en:12
00:24:16.538 : en:13
00:28:38.759 : en:14
00:30:03.218 : en:15
00:32:48.800 : en:16
00:35:08.106 : en:17
00:40:23.421 : en:18

Скриншоты

Лог кодирования

4.08.2011 - релиз обновлён - добавлена русская дорожка!
Благодарности релизеру (39)

Торрент:

Статус:

Размер:

Зарегистрирован   [ 2011-08-04 15:25 ]

проверено

4.02 GB