Торренты   
 
 

 

Приключения инопланетян 3D / Alien Adventure 3D (Бен Стассен) [1999 г., Anamorph OverUnder]

Рейтинг 3D:
3 голосов
9.3
Рейтинг фильма:
1 голосов
10
 
Вы должны быть авторизированы,
чтобы ставить оценки


Приключения инопланетян 3D / Alien Adventure 3D
Год выпуска: 1999
Страна: Бельгия / США
Жанр: приключения / анимация / фантастика
Продолжительность: 35 минут
Перевод: Отсутствует
Режиссер: Бен Стассен
В ролях: John Boyle, Bouli Lanners и Pierre Lebecque
Описание: Сотни и сотни лет маленькое племя космических бродяг-глаголитов странствует по вселенной в поисках нового дома, ведь их родная планета стала непригодна для жизни в результате техногенной катастрофы. Случайно, в одном малоинтересном районе галактики странники обнаруживают неизвестную им планету Земля. Вождь глаголитов Кирриллус отправляет туда несколько групп разведчиков с тем, чтобы они изучили особенности местной цивилизации. Все бы хорошо, да вот с местом посадки пришельцы ошиблись. Вместо того чтобы приземлиться в центре современного мегаполиса, глаголиты попадают на территорию нового, еще не открытого для публики тематического парка аттракционов под названием "Планета приключений". Тут-то и начинается самое интересное...
Фильм "Приключения инопланетян" стал одним из первых проектов, с которых началось развитие рынка киноразвлечений на основе формата IMAX 6D.
Доп. информация:

MI

Format : Matroska
File size : 3.45 GiB
Duration : 34mn 3s
Overall bit rate : 14.5 Mbps
Encoded date : UTC 2010-10-19 19:25:14
Writing application : VirtualDubMod 1.5.10.2 (build 2542/release)
Writing library : libebml-0.7.5 and libmatroska-0.7.7
Video
ID : 1
Format : AVC
Format/Info : Advanced Video Codec
Format profile : High@L4.0
Format settings, CABAC : Yes
Format settings, ReFrames : 4 frames
Codec ID : H264
Duration : 34mn 3s
Bit rate : 12.7 Mbps
Width : 1 920 pixels
Height : 1 080 pixels
Display aspect ratio : 16:9
Frame rate : 29.970 fps
Color space : YUV
Chroma subsampling : 4:2:0
Bit depth : 8 bits
Scan type : Progressive
Bits/(Pixel*Frame) : 0.204
Stream size : 3.02 GiB (87%)
Audio
ID : 2
Format : PCM
Codec ID : 1
Codec ID/Hint : Microsoft
Duration : 34mn 3s
Bit rate mode : Constant
Bit rate : 1 536 Kbps
Channel(s) : 2 channels
Sampling rate : 48.0 KHz
Bit depth : 16 bits
Stream size : 374 MiB (11%)
Language : English
Формат 3d: Anamorph OverUnder
Видео: MPEG4 Video (H264) 1920x1080 29.96fps

Скриншоты





Благодарности релизеру (0)

Торрент:

Статус:

Размер:

Зарегистрирован   [ 2011-06-02 02:26 ]

проверено

3.45 GB