Торренты   
 
 

 

Цирк дю Солей: Большое путешествие / Cirque du Soleil: Journey of Man [2000, BDrip, half1080p, Anamorph OverUnder]

Рейтинг 3D:
21 голосов
7.9
Рейтинг фильма:
21 голосов
7.6
 
Вы должны быть авторизированы,
чтобы ставить оценки


-Цирк дю Солей: Большое путешествие
Cirque du Soleil: Journey of Man
Год выпуска: 2000
Страна: США (Sony Pictures Classics)
Жанр: Мюзикл, Фэнтези, Семейный
Продолжительность: 00:38:56
Перевод: Профессиональный (дублированный)-Режиссер: Кейт Мелтон / Keith Melton
Композитор: Бенуа Джутрас / Benoît Jutras-В ролях:
Рассказчик - Иэн МакКеллен / Григорий Войнер (на русском)
Мальчик ... Пожилой мужчина: Cully Smoller, Крис Ван Вагенен, Никки Дьюхерст, Кенни Раскин, Брайан Дьюхерст
Flounes: Josette Dechene, Пол Ванчон
Vagabond Girl - Anait Karagyezyan
Moha-Samedi Puppet - Лоренцо Пизони
Palmiers - Чантал Коте, Мишлин Дусетте
Citrouille - Caroline Gosselin
Двуликий - Daniel Licaciu
Mephisto Stilt Demon - Дженнифер Клементе
Барабанщики: Мария Ахлаткина, Натали Б. Боллинджер, Пьер Дюбэ, Наташа Халлетт, Анник Моро, Ursula Trpin, Марк Уорд, Грегори Уайз, Мишель Уайз.
Пловцы: Сильви Фречетт, Хезер Стэнли, Изабелль Томас, Кэти Савой, Kari Kreitzer, Сюзанна Бьянко, Джилл Сабрина Саддаф.
Bungees: Линда Беланжер, Martin Boivert, Шена Кэрролл, Кэролин Вита, Sandra Feusi, Майкл Джон Розенбергер.
Cube Act - Михаил Маторин.
Statue Act: Ив Декосте, Marie-Laure Mesnage.
Banquines: Константин Бессчетный, Елена Колесникова, Александр Леонтьев, Олег Ушаков, Александр Пестов, Дэнис Пирогов, Игорь Стрижанов, Александр Зайцев, Татьяна Гусарова, Сергей Охай, Роман Полищук, Дмитро Сидоренко, Александр Майоров, Константин Захаренко.-Описание: Цирк… Атмосфера чуда и праздника витает в воздухе. Арена притягивает взгляды. И вот гаснет свет, дирижер взмахивает палочкой, оркестр берет первые такты… Представление начинается, и зал замирает в ожидании сказочного действа…
Cirque Du Soleil "Путешествие человека" - захватывающая одиссея, которая следует этапами развития человека от рождения до старости, и каждый этап представляется номером Цирка.
Cirque Du Soleil - это праздник цвета, света, музыки и костюмов на фоне различных природных и исторических памятников по всему миру, создающее торжество артистизма!
Cirque Du Soleil "Путешествие человека" открывается взрывом света и звука, который представляет формирование Вселенной, а затем показывает нам рождение Ребенка Вселенной, и проводит нас через его детство, юность и зрелость, к старости. Несравненный артистизм и стильная элегантность превращает этот впечатляющий праздник души в приключение всей жизни!

Cirque du Soleil

Cirque du Soleil был основан в 1984 году Лалиберте и Даниэлем Готье и базируется в канадском Монреале. Компания насчитывает более 4 тысяч человек, работающих в разных труппах, что позволяет давать представления в нескольких точках мира одновременно. Cirque du Soleil создал новый жанр, в котором сочетаются театр, хореография, акробатика. В спектаклях цирка никогда не задействовались животные.Cirque du Soleil отличается способностью чутко реагировать на происходящее в мире - так, в следующем году он представит шоу, посвященное жизни и творчеству Майкла Джексона. Кроме того, создатель цирка Ги Лалиберте старается не упускать новые рынки, будь то 3D- кинематограф или страны, где труппа может получить зрительское признание.
Премьера: 5 мая 2000
Проверено на встроенном плейере ТВ Samsung UE-C7000--Формат 3D: Anamorph OverUnder
Качество: BDrip
Контейнер: MKV-Видео: AVC / 23,976 fps / 1920х1080p / 9236 Kbps
Аудио:
#1 - Русский / AC3 / 48 KHz / 5.0 ch / 640 Kbps
#2 - Английский / AC3 / 48 KHz / 5.1 ch / 640 Kbps
Субтитры SRT вшитые softsub:
#1 - Русские Полные
#2 - English SDH (Сорри, уже после выкладывания обнаружил в них ошибку, так что они не работают.)

MediaInfo

General
UniqueID : 208644556309349280027852219380669806162 (0x9CF77AD8F43E366EA0842AC49B12F652)
Complete name : F:\Downloads\CirqueDuSoleil.JourneyOfMan(3D)2000.halfOU(Ash61).mkv
Format : Matroska
File size : 2.92 GiB
Duration : 38mn 57s
Overall bit rate : 10.7 Mbps
Movie name : Cirque du Soleil: Journey of Man (3D) 2000 (by Ash61)
Encoded date : UTC 2012-07-05 08:40:07
Writing application : mkvmerge v3.4.0 ('Rapunzel') сборка от May 15 2010 09:38:20
Writing library : libebml v0.8.0 + libmatroska v0.9.0
Video
ID : 1
Format : AVC
Format/Info : Advanced Video Codec
Format profile : High@L4.1
Format settings, CABAC : Yes
Format settings, ReFrames : 4 frames
Format settings, GOP : M=3, N=16
Codec ID : V_MPEG4/ISO/AVC
Duration : 38mn 57s
Bit rate : 9 236 Kbps
Width : 1 920 pixels
Height : 1 080 pixels
Display aspect ratio : 16:9
Frame rate : 23.976 fps
Color space : YUV
Chroma subsampling : 4:2:0
Bit depth : 8 bits
Scan type : Progressive
Bits/(Pixel*Frame) : 0.186
Stream size : 2.51 GiB (86%)
Title : BDrip by Ash61
Writing library : x264 core 113 r1884 7313bb5
Encoding settings : cabac=1 / ref=4 / deblock=1:-1:-1 / analyse=0x3:0x113 / me=umh / subme=9 / psy=1 / psy_rd=1.00:0.15 / mixed_ref=1 / me_range=16 / chroma_me=1 / trellis=2 / 8x8dct=1 / cqm=0 / deadzone=21,11 / fast_pskip=1 / chroma_qp_offset=-3 / threads=3 / sliced_threads=0 / nr=0 / decimate=1 / interlaced=0 / constrained_intra=0 / bframes=4 / b_pyramid=2 / b_adapt=2 / b_bias=0 / direct=3 / weightb=1 / open_gop=0 / weightp=2 / keyint=250 / keyint_min=23 / scenecut=40 / intra_refresh=0 / rc_lookahead=40 / rc=crf / mbtree=1 / crf=18.0 / qcomp=0.60 / qpmin=0 / qpmax=69 / qpstep=4 / ip_ratio=1.40 / aq=1:1.00
Audio #1
ID : 2
Format : AC-3
Format/Info : Audio Coding 3
Mode extension : CM (complete main)
Codec ID : A_AC3
Duration : 38mn 57s
Bit rate mode : Constant
Bit rate : 640 Kbps
Channel(s) : 6 channels
Channel positions : Front: L C R, Side: L R, LFE
Sampling rate : 48.0 KHz
Bit depth : 16 bits
Compression mode : Lossy
Stream size : 178 MiB (6%)
Title : Дубляж - Григорий Войнер / ТО "Серебряная Полоса" (ред. Ash61 с перекодированием)
Language : Russian
Audio #2
ID : 3
Format : AC-3
Format/Info : Audio Coding 3
Mode extension : CM (complete main)
Codec ID : A_AC3
Duration : 38mn 57s
Bit rate mode : Constant
Bit rate : 640 Kbps
Channel(s) : 6 channels
Channel positions : Front: L C R, Side: L R, LFE
Sampling rate : 48.0 KHz
Bit depth : 16 bits
Compression mode : Lossy
Stream size : 178 MiB (6%)
Language : English
Text #1
ID : 4
Format : UTF-8
Codec ID : S_TEXT/UTF8
Codec ID/Info : UTF-8 Plain Text
Title : Полные
Language : Russian
Text #2
ID : 5
Format : UTF-8
Codec ID : S_TEXT/UTF8
Codec ID/Info : UTF-8 Plain Text
Title : Full
Language : English
Menu
00:00:00.000 : en:01
00:01:14.992 : en:02
00:02:50.504 : en:03
00:07:06.635 : en:04
00:10:04.145 : en:05
00:14:43.758 : en:06
00:17:05.942 : en:07
00:18:08.838 : en:08
00:20:15.631 : en:09
00:26:44.812 : en:10
00:27:32.317 : en:11
00:27:57.259 : en:12
00:31:16.124 : en:13
00:33:14.951 : en:14
00:34:40.161 : en:15
00:35:58.531 : en:16

Анимация для оценки качества 3Д

Cover & Label


Благодарности релизеру (50)

Торрент:

Статус:

Размер:

Зарегистрирован   [ 2012-07-05 17:09 ]

проверено

2.92 GB