Торренты   
 
 


Спортс Иллюстрейтед - Купальники 2011: 3Д Испытание / Sports Illustrated Swimsuit 2011: The 3D Experience [2011 г, 1080p, Anamorph OverUnder]

Рейтинг 3D:
Пока никто не голосовал
Рейтинг фильма:
Пока никто не голосовал
 
Вы должны быть авторизированы,
чтобы ставить оценки


Спортс Иллюстрейтед - Купальники 2011: 3Д Испытание / Sports Illustrated Swimsuit 2011: The 3D Experience
Год выпуска: 2011
Страна: США
Жанр: Видовой
Продолжительность: 00:30:05
Перевод: Отсутствует (не обязателен)
Язык: Английский
В главных ролях модели: Irina Shayk, Julie Henderson, Alyssa Miller
Описание: Спортс Иллюстрейтед — американский еженедельный спортивный журнал, издаваемый медиахолдингом Time Warner. Выпускается с августа 1954 года. У журнала 3,3 миллиона подписчиков, общее количество читателей превышает 23 миллиона.
С 1964 года издаётся специальный ежегодный выпуск Sports Illustrated Swimsuit с фотографиями супермоделей в купальных костюмах на фоне экзотических пейзажей. В разное время для этого ежегодника снимались такие известные модели как Кэти Айрлэнд, Эль Макферсон, Петра Немцова, Хайди Клум, Тайра Бэнкс, Мариса Миллер, Синди Кроуфорд, Наоми Кэмпбелл и Бар Рафаэли. Помимо моделей для журнала в купальниках позировали известные спортсменки: теннисистки Штеффи Граф, Серена и Венус Уильямс, Анна Курникова, Мария Шарапова, пловчиха Аманда Бёрд, баскетболистка Лорен Джексон, фигуристка Екатерина Гордеева.
-------------------------------------------------------
В общем - приятные девушки на красивом фоне! 3д в порядке. (ash61)
Формат 3d: Anamorph OverUnder
Качество: BDrip
Контейнер: MKV
Видео: AVC / 1920х1080p / 23,976 fps / 12.2 Mbps
Аудио: AC3 / 6 ch / 640 Kbps / 48 KHz

MediaInfo

General
UniqueID : 233407913272160504992346918909560021668 (0xAF98BA9BFE75AF4591AAEEBF50B0E2A4)
Complete name : F:\Downloads\SportsIllustrated.Swimsuit.3D.HalfOU.Ash61.mkv
Format : Matroska
File size : 2.76 GiB
Duration : 30mn 6s
Overall bit rate : 13.1 Mbps
Encoded date : UTC 2011-06-02 11:48:30
Writing application : mkvmerge v3.4.0 ('Rapunzel') сборка от May 15 2010 09:38:20
Writing library : libebml v0.8.0 + libmatroska v0.9.0
Video
ID : 1
Format : AVC
Format/Info : Advanced Video Codec
Format profile : High@L4.1
Format settings, CABAC : Yes
Format settings, ReFrames : 4 frames
Format settings, GOP : M=3, N=26
Codec ID : V_MPEG4/ISO/AVC
Duration : 30mn 6s
Bit rate : 12.2 Mbps
Width : 1 920 pixels
Height : 1 080 pixels
Display aspect ratio : 0.889
Original display aspect ratio : 16:9
Frame rate : 23.976 fps
Color space : YUV
Chroma subsampling : 4:2:0
Bit depth : 8 bits
Scan type : Progressive
Bits/(Pixel*Frame) : 0.245
Stream size : 2.57 GiB (93%)
Title : Rip by Ash61
Writing library : x264 core 113 r1884 7313bb5
Encoding settings : cabac=1 / ref=4 / deblock=1:-1:-1 / analyse=0x3:0x113 / me=umh / subme=9 / psy=1 / psy_rd=1.00:0.15 / mixed_ref=1 / me_range=16 / chroma_me=1 / trellis=2 / 8x8dct=1 / cqm=0 / deadzone=21,11 / fast_pskip=1 / chroma_qp_offset=-3 / threads=3 / sliced_threads=0 / nr=0 / decimate=1 / interlaced=0 / constrained_intra=0 / bframes=4 / b_pyramid=2 / b_adapt=2 / b_bias=0 / direct=3 / weightb=1 / open_gop=0 / weightp=2 / keyint=250 / keyint_min=23 / scenecut=40 / intra_refresh=0 / rc_lookahead=40 / rc=crf / mbtree=1 / crf=18.0 / qcomp=0.60 / qpmin=0 / qpmax=69 / qpstep=4 / ip_ratio=1.40 / aq=1:1.00
Audio
ID : 2
Format : AC-3
Format/Info : Audio Coding 3
Mode extension : CM (complete main)
Codec ID : A_AC3
Duration : 30mn 6s
Bit rate mode : Constant
Bit rate : 640 Kbps
Channel(s) : 6 channels
Channel positions : Front: L C R, Side: L R, LFE
Sampling rate : 48.0 KHz
Bit depth : 16 bits
Compression mode : Lossy
Stream size : 138 MiB (5%)
Language : English
Menu
00:00:00.000 : en:01
00:01:14.491 : en:02
00:03:27.582 : en:03
00:06:39.566 : en:04
00:08:49.195 : en:05
00:10:42.475 : en:06
00:12:14.233 : en:07
00:14:21.444 : en:08
00:15:52.577 : en:09
00:16:56.807 : en:10
00:19:30.002 : en:11
00:20:19.427 : en:12
00:22:27.346 : en:13
00:23:22.860 : en:14
00:25:18.016 : en:15
00:27:31.984 : en:16

Лог кодирования

Благодарности релизеру (12)

Торрент:

Статус:

Размер:

Зарегистрирован   [ 2011-06-02 17:08 ]

проверено

2.76 GB