Торренты   
 
 


Видео-экскурсии по миру в 3D (5) / 3D Destinations (5) [1080i-p, Anamorph SideBySide]

Рейтинг 3D:
Пока никто не голосовал
Рейтинг фильма:
Пока никто не голосовал
 
Вы должны быть авторизированы,
чтобы ставить оценки


Видео-экскурсии по миру в 3D (5) / 3D Destinations (5)

Жанр: Видовой
Общая продолжительность: 01:31:16
Перевод: Отсутствует
Язык: Английский
Описание: Пятая часть из серии Destinations 3d - ещё пять видео-экскурсий:
14. Гонконг (00:14:57)
15. Иерусалим (00:15:39)
16. Пхукет (остров, Таиланд) (Части 1 и 2) (00:30:24)
17. Прага (00:15:19)
18. Вена (00:14:57)
На Гонконге и Пхукете имеются эпизоды с разбалансом цветности между ракурсами (так было в источнике). Сильно не напрягает.
Первая часть
Вторая часть
Третья часть
Четвёртая часть
Формат 3d: Anamorph SideBySide
Порядок ракурсов: Параллельная пара
Тех.данные первого файла:
Качество: HDTV-Rip
Контейнер: ts
Видео: AVC / 1920х1080i / 25 fps / 7 260 Kbps
Аудио: mp2 / 2 ch / 384 Kbps / 48 KHz

MediaInfo первого файла

General
ID : 1 (0x1)
Complete name : F:\Downloads\Destinations3d-5\Destinations3d.Hong Kong.ts
Format : MPEG-TS
Format/Info : Advanced Video Codec
File size : 860 MiB
Duration : 14mn 56s
Overall bit rate : 8 045 Kbps
Maximum Overall bit rate : 35.5 Mbps
Video
ID : 4113 (0x1011)
Menu ID : 1 (0x1)
Format : AVC
Format/Info : Advanced Video Codec
Format profile : Main@L4.0
Format settings, CABAC : Yes
Format settings, ReFrames : 4 frames
Format settings, GOP : M=1, N=34
Codec ID : 27
Duration : 14mn 56s
Bit rate mode : Variable
Bit rate : 7 260 Kbps
Maximum bit rate : 40.0 Mbps
Width : 1 920 pixels
Height : 1 080 pixels
Display aspect ratio : 16:9
Frame rate : 25.000 fps
Standard : Component
Color space : YUV
Chroma subsampling : 4:2:0
Bit depth : 8 bits
Scan type : Interlaced
Scan order : Top Field First
Bits/(Pixel*Frame) : 0.140
Stream size : 776 MiB (90%)
Color primaries : BT.709-5, BT.1361, IEC 61966-2-4, SMPTE RP177
Transfer characteristics : BT.709-5, BT.1361
Matrix coefficients : BT.709-5, BT.1361, IEC 61966-2-4 709, SMPTE RP177
Audio
ID : 4352 (0x1100)
Menu ID : 1 (0x1)
Format : MPEG Audio
Format version : Version 1
Format profile : Layer 2
Codec ID : 4
Duration : 14mn 56s
Bit rate mode : Constant
Bit rate : 384 Kbps
Channel(s) : 2 channels
Sampling rate : 48.0 KHz
Compression mode : Lossy
Stream size : 41.0 MiB (5%)
Language : English

Тех.данные 2-5 файлов
Качество: HDTV-Rip
Контейнер: mkv
Видео: AVC / 1920х1080p / 25 fps / 9,8 - 11.8 Mbps
Аудио: AC3 / 6 ch / 448 Kbps / 48 KHz

MediaInfo второго файла (последующие отличаются незначительно)

General
UniqueID : 217787997382934700458405651252157473022 (0xA3D8714C30391D1AB5A57B952FF1E0FE)
Complete name : F:\Downloads\Destinations3d-5\Destinations3d.Jerusalem.mkv
Format : Matroska
File size : 1.34 GiB
Duration : 15mn 41s
Overall bit rate : 12.2 Mbps
Movie name : destinations
Encoded date : UTC 2011-06-03 18:08:20
Writing application : mkvmerge v3.4.0 ('Rapunzel') сборка от May 15 2010 09:38:20
Writing library : libebml v0.8.0 + libmatroska v0.9.0
Video
ID : 1
Format : AVC
Format/Info : Advanced Video Codec
Format profile : Main@L4.0
Format settings, CABAC : Yes
Format settings, ReFrames : 2 frames
Codec ID : V_MPEG4/ISO/AVC
Duration : 15mn 41s
Bit rate : 11.5 Mbps
Width : 1 920 pixels
Height : 1 080 pixels
Display aspect ratio : 16:9
Frame rate : 25.000 fps
Color space : YUV
Chroma subsampling : 4:2:0
Bit depth : 8 bits
Scan type : Progressive
Bits/(Pixel*Frame) : 0.222
Stream size : 1.26 GiB (94%)
Color primaries : BT.709-5, BT.1361, IEC 61966-2-4, SMPTE RP177
Transfer characteristics : BT.709-5, BT.1361
Matrix coefficients : BT.709-5, BT.1361, IEC 61966-2-4 709, SMPTE RP177
Audio
ID : 2
Format : AC-3
Format/Info : Audio Coding 3
Mode extension : CM (complete main)
Codec ID : A_AC3
Duration : 15mn 41s
Bit rate mode : Constant
Bit rate : 448 Kbps
Channel(s) : 6 channels
Channel positions : Front: L C R, Side: L R, LFE
Sampling rate : 48.0 KHz
Bit depth : 16 bits
Compression mode : Lossy
Video delay : 16ms
Stream size : 50.3 MiB (4%)
Language : English

Скриншоты

Благодарности релизеру (3)

Торрент:

Статус:

Размер:

Зарегистрирован   [ 2011-06-04 17:08 ]

проверено

7.07 GB