Торренты   
 
 

 

Союз зверей 3D / Konferenz der Tiere 3D (Райнхард Клоосс) [2010 г.1080p, Anaglyph (Dubois), red'cyan]

Рейтинг 3D:
26 голосов
8.6
Рейтинг фильма:
27 голосов
8.5
 
Вы должны быть авторизированы,
чтобы ставить оценки


Союз зверей 3D / Konferenz der Tiere 3D
Год выпуска: 2010
Страна: Германия
Жанр: Мультфильм, комедия, приключения, семейный
Продолжительность: 01:33:10
Перевод: Профессиональный (полное дублирование)
Режиссер: Райнхард Клоосс
Роли озвучивали: Вадим Галыгин, Илья Любимов, Тимур Родригез, Иван Жарков, Любовь Германова, Вероника Саркисова, Пётр Иващенко, Дмитрий Курта
Описание: Команда веселых зверей нашла зеленый оазис посреди засушливой африканской пустыни, чтобы там поселиться. Но их жизнь оказалась под угрозой - река Окаванго стала быстро пересыхать. Друзья выясняют, что в этом виноваты люди, которые построили дамбу. Звери, - такие разные, - от льва до трусливого суслика, - объединяются в союз, чтобы бросить вызов людям и спасти долину! Смешная ватага разношерстных, винторогих и парнокопытных устроит развеселую жизнь людям и наведет свой «порядок» на дамбе!
Формат 3d: Anaglyph (Дюбуа)
Цвета очков:

Скриншоты

MediaInfo

General
Format : Matroska
File size : 4.50 GiB
Duration : 1h 33mn
Overall bit rate : 6 917 Kbps
Encoded date : UTC 2011-06-05 06:49:52
Writing application : mkvmerge v4.4.0 ('Die Wiederkehr') сборка от Oct 31 2010 21:52:48
Writing library : libebml v1.0.0 + libmatroska v1.0.0
Video
ID : 1
Format : AVC
Format/Info : Advanced Video Codec
Format profile : High@L4.0
Format settings, CABAC : Yes
Format settings, ReFrames : 4 frames
Codec ID : V_MPEG4/ISO/AVC
Duration : 1h 33mn
Bit rate : 6 331 Kbps
Width : 1 920 pixels
Height : 820 pixels
Display aspect ratio : 16:9
Original display aspect ratio : 2.35:1
Frame rate : 23.976 fps
Color space : YUV
Chroma subsampling : 4:2:0
Bit depth : 8 bits
Scan type : Progressive
Bits/(Pixel*Frame) : 0.168
Stream size : 4.12 GiB (92%)
Writing library : x264 core 115 r1995 c1e60b9
Encoding settings : cabac=1 / ref=4 / deblock=1:-2:-2 / analyse=0x3:0x113 / me=umh / subme=7 / psy=1 / psy_rd=1.00:0.15 / mixed_ref=1 / me_range=16 / chroma_me=1 / trellis=2 / 8x8dct=1 / cqm=0 / deadzone=21,11 / fast_pskip=1 / chroma_qp_offset=-3 / threads=6 / sliced_threads=0 / nr=0 / decimate=1 / interlaced=0 / bluray_compat=0 / constrained_intra=0 / bframes=6 / b_pyramid=0 / b_adapt=2 / b_bias=0 / direct=3 / weightb=1 / open_gop=0 / weightp=2 / keyint=250 / keyint_min=23 / scenecut=40 / intra_refresh=0 / rc_lookahead=40 / rc=crf / mbtree=1 / crf=18.0 / qcomp=0.60 / qpmin=10 / qpmax=69 / qpstep=4 / ip_ratio=1.40 / aq=1:1.00
Language : Russian
Audio
ID : 2
Format : AC-3
Format/Info : Audio Coding 3
Mode extension : CM (complete main)
Codec ID : A_AC3
Duration : 1h 33mn
Bit rate mode : Constant
Bit rate : 448 Kbps
Channel(s) : 6 channels
Channel positions : Front: L C R, Side: L R, LFE
Sampling rate : 48.0 KHz
Bit depth : 16 bits
Compression mode : Lossy
Stream size : 299 MiB (6%)
Language : Russian
Остальные раздачи этого фильма (5)
Благодарности релизеру (0)

Торрент:

Статус:

Размер:

Зарегистрирован   [ 2011-06-05 11:27 ]

проверено

4.5 GB

 
 Мнение о фильме (4)





Мульт хороший! Детям очень понравился. Сначала показал им в обычном режиме, а потом в 3D-восторг был неопесуемым!!!
 

Мне мульт показался полной чушью, качество отличное а физика движения и прорисовка в некоторых сценах средняя, по моему мнению.
 

У меня задний план раздваивается, регулровка не помогла. Мульт пришлось удалить. Жаль :(
 

Мультик сам по себе, на мой взгляд, заслуживает средней оценки, как по сюжету, так и по 3Д.