Торренты   
 
 

 

Санктум / Sanctum (US BD) [2011 г, 1080p, Anamorph OverUnder]

Нужно ли выкладывать к фильмам полные субтитры (понимаемые и ТВ)?

Да   31%  31%  [ 237 ]
Нет   35%  35%  [ 266 ]
Мне всё равно   33%  33%  [ 249 ]

Всего проголосовало : 752

Рейтинг 3D:
96 голосов
8.1
Рейтинг фильма:
94 голосов
8.1
 
Вы должны быть авторизированы,
чтобы ставить оценки


Санктум / Sanctum
Год выпуска: 2011
Страна: США, Австралия
Жанр: Триллер, Драма, Приключения
Продолжительность: 01:48:41
Перевод: Профессиональный (полное дублирование)
Режиссер: Алистер Грирсон / Alister Grierson
В ролях: Ричард Роксбург, Йоан Гриффит, Риз Уэйкфилд, Элис Паркинсон, Дэниэл Уилли, Кристофер Бэйкер, Элисон Крэтчли, Крамер Кэйн, Эндрю Хансен, Джон Гарвин
Описание: Группа дайверов предпринимает очень рискованную экспедицию в самую большую систему пещер на Земле — невероятно красивую и почти недоступную. Неожиданный тропический шторм вынуждает их спуститься глубоко в пещеры. Единственное спасение для исследователей — найти неизвестный второй выход к морю, преодолевая неистовую стихию бушующих вод, коварные ловушки подземелий и смертельный ужас…
Доп. информация: Рип с US Blu-Ray. Картинка сильно отличается от прежнего, БлюБёрдовского БД (ниже смотрите скриншоты сравнения). Обращаю внимание: совершенно разные насыщенность цвета, баланс белого, кадрирование и контрастность (детали в тенях у БлюБёрда теряются). Это то, на что я обратил внимание, может кто ещё что заметит.
Формат 3d: Anamorph OverUnder
Релиз:
Качество: BDrip
Контейнер: MKV
Видео: AVC / 1920х1080p / 23,976 fps / 13.9 Mbps
Аудио#1: Русский / AC3 / 6 ch / 640 Kbps / 48 KHz
Аудио#2: Украинский / AC3 / 6 ch / 448 Kbps / 48 KHz
Аудио#3: Английский / AC3 / 6 ch / 640 kbps / 48 KHz

MediaInfo

General
UniqueID : 248274129055946043579840269115737650446 (0xBAC7DBA30A5EE51780E4E3501552350E)
Complete name : F:\Downloads\Sanctum.3D.2011.HalfOU.h264.AC3.3D-RuGroup.mkv
Format : Matroska
File size : 12.1 GiB
Duration : 1h 48mn
Overall bit rate : 15.9 Mbps
Encoded date : UTC 2011-06-07 21:11:20
Writing application : mkvmerge v3.4.0 ('Rapunzel') сборка от May 15 2010 09:38:20
Writing library : libebml v0.8.0 + libmatroska v0.9.0
Video
ID : 1
Format : AVC
Format/Info : Advanced Video Codec
Format profile : High@L4.1
Format settings, CABAC : Yes
Format settings, ReFrames : 4 frames
Codec ID : V_MPEG4/ISO/AVC
Duration : 1h 48mn
Bit rate : 13.9 Mbps
Width : 1 920 pixels
Height : 1 080 pixels
Display aspect ratio : 0.889
Original display aspect ratio : 16:9
Frame rate : 23.976 fps
Color space : YUV
Chroma subsampling : 4:2:0
Bit depth : 8 bits
Scan type : Progressive
Bits/(Pixel*Frame) : 0.279
Stream size : 10.5 GiB (87%)
Title : Rip by Ash61
Writing library : x264 core 113 r1884 7313bb5
Encoding settings : cabac=1 / ref=4 / deblock=1:-1:-1 / analyse=0x3:0x113 / me=umh / subme=9 / psy=1 / psy_rd=1.00:0.15 / mixed_ref=1 / me_range=16 / chroma_me=1 / trellis=2 / 8x8dct=1 / cqm=0 / deadzone=21,11 / fast_pskip=1 / chroma_qp_offset=-3 / threads=3 / sliced_threads=0 / nr=0 / decimate=1 / interlaced=0 / constrained_intra=0 / bframes=4 / b_pyramid=2 / b_adapt=2 / b_bias=0 / direct=3 / weightb=1 / open_gop=0 / weightp=2 / keyint=250 / keyint_min=23 / scenecut=40 / intra_refresh=0 / rc_lookahead=40 / rc=crf / mbtree=1 / crf=18.0 / qcomp=0.60 / qpmin=0 / qpmax=69 / qpstep=4 / ip_ratio=1.40 / aq=1:1.00
Audio #1
ID : 2
Format : AC-3
Format/Info : Audio Coding 3
Mode extension : CM (complete main)
Codec ID : A_AC3
Duration : 1h 48mn
Bit rate mode : Constant
Bit rate : 640 Kbps
Channel(s) : 6 channels
Channel positions : Front: L C R, Side: L R, LFE
Sampling rate : 48.0 KHz
Bit depth : 16 bits
Compression mode : Lossy
Stream size : 498 MiB (4%)
Language : Russian
Audio #2
ID : 3
Format : AC-3
Format/Info : Audio Coding 3
Mode extension : CM (complete main)
Codec ID : A_AC3
Duration : 1h 48mn
Bit rate mode : Constant
Bit rate : 448 Kbps
Channel(s) : 6 channels
Channel positions : Front: L C R, Side: L R, LFE
Sampling rate : 48.0 KHz
Bit depth : 16 bits
Compression mode : Lossy
Stream size : 348 MiB (3%)
Language : Ukrainian
Audio #3
ID : 4
Format : AC-3
Format/Info : Audio Coding 3
Mode extension : CM (complete main)
Codec ID : A_AC3
Duration : 1h 48mn
Bit rate mode : Constant
Bit rate : 640 Kbps
Channel(s) : 6 channels
Channel positions : Front: L C R, Side: L R, LFE
Sampling rate : 48.0 KHz
Bit depth : 16 bits
Compression mode : Lossy
Stream size : 498 MiB (4%)
Language : English
Menu
00:00:00.000 : ru:01
00:04:56.755 : ru:02
00:08:41.813 : ru:03
00:14:16.397 : ru:04
00:20:39.780 : ru:05
00:27:01.161 : ru:06
00:30:55.520 : ru:07
00:33:48.360 : ru:08
00:44:14.610 : ru:09
00:48:49.844 : ru:10
00:54:54.666 : ru:11
00:59:01.747 : ru:12
01:06:59.390 : ru:13
01:14:20.164 : ru:14
01:19:53.247 : ru:15
01:24:31.692 : ru:16
01:28:20.837 : ru:17
01:32:02.559 : ru:18
01:39:16.868 : ru:19
01:43:18.651 : ru:20

Скриншоты

Скриншоты сравнения двух BD

BD-BlueBird BD-US (данный рип с этого)

Лог кодирования

Остальные раздачи этого фильма (4)
Благодарности релизеру (55)

Торрент:

Статус:

Размер:

Зарегистрирован   [ 2011-09-08 13:07 ]

проверено

12.07 GB

 
 Мнение о фильме (37)

Пред.  1, 2






Фильм понравился, интересный сюжет, держал в напряжениии)) На счет 3д, то смотрелось легко и красочно))) особых объемов я не увидела, но это не испортило фильм нисколечки))
 

cool!!!
 

сюжет не очень а снят отлично, не люблю паникеров.
 

Отличный фильм. Спасибо.
 

Третий раз смотрю, и по-прежнему нравится)) Спасибо!
 

Супер, здорово.
 

За раздачу респект, а вот фильм нуторный, не зацепил, удаляю.
 

Спасибо!!!! фильм хороший 3д норма.
 

Отличное 3D! Конечно чувствуется разница, когда снято специальным оборудованием для 3D, а не просто конвертация обычного видео.
 

Ну уж нет! Если с "парком юрского периода" сравнивать, 3D никакое! Фильм - Лажа!
 

Leyla26rus ты гонишь конкретно! Фильм шикарный!!! Ты с пальмы что ли раньше фильмы смотрел? Такой фильм классный отзывом своим дерьмовым опустил. И не лень писать было!
 

Фильм порадовал, спасибо!
 
Вячеслав1976 Профиль 23-Дек-2013 04:30

ash61, Спасибо,всё как обычно без сучков,и 3Д хорошее,и озвучка сразу наша. Когда-то смотрел в 2Д,поэтому только сейчас решил еще разок. Хороший фильм,хоть и тяжёлый,однако поучительный.В 3Д таких мало.
 

хороший фильм но можно и в 2д смотреть эфектов нет.
 

Спасибо за фильм !
 

Чето я не понимаю, а почему без перевода?
 

фильм с полосами или полный экран?
 

Страница 2 из 2

Пред.  1, 2