Торренты   
 
 


Битва за планету Терра / Battle for Terra [2007 г, 1080p, Anamorph OverUnder]

Рейтинг 3D:
16 голосов
6.7
Рейтинг фильма:
13 голосов
8.2
 
Вы должны быть авторизированы,
чтобы ставить оценки


Битва за планету Терра / Battle for Terra
Год выпуска: 2007
Страна: США
Жанр: Мультфильм, Фантастика, Приключения
Продолжительность: 01:18:59
Перевод: Профессиональный (полное дублирование)
Режиссер: Аристоменис Тсирбас / Aristomenis Tsirbas
Роли озвучивали: Evan Rachel Wood, Luke Wilson, Brian Cox, James Garner, Chris Evans, Danny Glover, Amanda Peet, David Cross, Dennis Quaid, Rosanna Arquette, Ron Perlman, Danny Trejo
Роли дублировали: Елена Захарова, Евгений Стычкин, Сергей Степанченко, Вячеслав Гришечкин, Александр Комлев
Описание: Когда на планете Земля пересохли все реки, исчезли леса, а воздух превратился в пыль, люди исколесили Галактику, чтобы найти себе новый дом. Прекрасная планета Терра стала надеждой людей на спасение. Хитроумное устройство землян Терраформер должен превратить Терру в рай для людей и кошмар для коренных жителей. Катастрофа для террианцев неизбежна, они обречены.
Счет идет на дни и часы. И все бы шло по плану, если не одна случайность. Девочка с Терры Молу подбирает раненого пилота — землянина. Они становятся лучшими друзьями и вместе находят хитрый способ спасти Терру — последнюю живую планету Галактики. Они не подозревают, что сразу окажутся в центре бурных, опасных, веселых и удивительных событий…
Доп. информация: Рип с немецкого БД.
Формат 3d: Anamorph OverUnder
Качество: BDrip
Контейнер: MKV
Видео: AVC / 1920х1080p / 23,976 fps / 3 936 Kbps
Аудио#1: Русский / AC3 / 6 ch / 448 Kbps / 48 KHz
Аудио#2: Английский / AC3 / 6 ch / 640 kbps / 48 KHz

MediaInfo

General
UniqueID : 218183450200024745727521018371432565096 (0xA4249AA076ED7A4D88BBB7DEDB4CC968)
Complete name : F:\Downloads\BattleForTerra.3D.2009.halfOU.AC3.ash61.mkv
Format : Matroska
File size : 2.83 GiB
Duration : 1h 19mn
Overall bit rate : 5 126 Kbps
Encoded date : UTC 2011-06-10 07:58:02
Writing application : mkvmerge v3.4.0 ('Rapunzel') сборка от May 15 2010 09:38:20
Writing library : libebml v0.8.0 + libmatroska v0.9.0
Video
ID : 1
Format : AVC
Format/Info : Advanced Video Codec
Format profile : High@L4.1
Format settings, CABAC : Yes
Format settings, ReFrames : 4 frames
Format settings, GOP : M=1, N=32
Codec ID : V_MPEG4/ISO/AVC
Duration : 1h 19mn
Bit rate : 3 936 Kbps
Width : 1 920 pixels
Height : 1 080 pixels
Display aspect ratio : 0.889
Original display aspect ratio : 16:9
Frame rate : 23.976 fps
Color space : YUV
Chroma subsampling : 4:2:0
Bit depth : 8 bits
Scan type : Progressive
Bits/(Pixel*Frame) : 0.079
Stream size : 2.17 GiB (77%)
Title : Rip by Ash61
Writing library : x264 core 113 r1884 7313bb5
Encoding settings : cabac=1 / ref=4 / deblock=1:-1:-1 / analyse=0x3:0x113 / me=umh / subme=9 / psy=1 / psy_rd=1.00:0.15 / mixed_ref=1 / me_range=16 / chroma_me=1 / trellis=2 / 8x8dct=1 / cqm=0 / deadzone=21,11 / fast_pskip=1 / chroma_qp_offset=-3 / threads=3 / sliced_threads=0 / nr=0 / decimate=1 / interlaced=0 / constrained_intra=0 / bframes=4 / b_pyramid=2 / b_adapt=2 / b_bias=0 / direct=3 / weightb=1 / open_gop=0 / weightp=2 / keyint=250 / keyint_min=23 / scenecut=40 / intra_refresh=0 / rc_lookahead=40 / rc=crf / mbtree=1 / crf=19.0 / qcomp=0.60 / qpmin=0 / qpmax=69 / qpstep=4 / ip_ratio=1.40 / aq=1:1.00
Audio #1
ID : 2
Format : AC-3
Format/Info : Audio Coding 3
Mode extension : CM (complete main)
Codec ID : A_AC3
Duration : 1h 19mn
Bit rate mode : Constant
Bit rate : 448 Kbps
Channel(s) : 6 channels
Channel positions : Front: L C R, Side: L R, LFE
Sampling rate : 48.0 KHz
Bit depth : 16 bits
Compression mode : Lossy
Video delay : 2ms
Stream size : 253 MiB (9%)
Language : Russian
Audio #2
ID : 3
Format : AC-3
Format/Info : Audio Coding 3
Mode extension : CM (complete main)
Codec ID : A_AC3
Duration : 1h 19mn
Bit rate mode : Constant
Bit rate : 640 Kbps
Channel(s) : 6 channels
Channel positions : Front: L C R, Side: L R, LFE
Sampling rate : 48.0 KHz
Bit depth : 16 bits
Compression mode : Lossy
Stream size : 362 MiB (12%)
Language : English
Menu
00:00:00.000 : en:01
00:04:58.590 : en:02
00:09:47.337 : en:03
00:16:19.562 : en:04
00:20:38.696 : en:05
00:25:55.512 : en:06
00:30:59.357 : en:07
00:36:01.076 : en:08
00:40:15.538 : en:09
00:44:51.272 : en:10
00:48:27.196 : en:11
00:56:11.702 : en:12
01:00:11.024 : en:13
01:04:28.531 : en:14
01:09:05.600 : en:15
01:17:00.241 : en:16

Скриншоты

Лог кодирования

Остальные раздачи этого фильма (5)
Благодарности релизеру (14)

Торрент:

Статус:

Размер:

Зарегистрирован   [ 2011-09-08 13:07 ]

проверено

2.83 GB

 
 Мнение о фильме (4)





Мульт фигня.
 

Отличный мультик и 3D на высоте,полно вылетов!Мне понравился!
 

Кому как, а лично мне понравился. И 3D и сам фильм очень хорошие!
 

Все на высоте.СПАСИБО)))