Торренты   
 
 


Кукарача 3D (Армен Адилханян) [2011г, 1080p, BDrip, Anamorph OverUnder]

Рейтинг 3D:
1 голосов
6.0
Рейтинг фильма:
2 голосов
4.5
 
Вы должны быть авторизированы,
чтобы ставить оценки


Кукарача 3D
Год выпуска: 2011
Страна: Россия, Парадиз Видео
Жанр: Мультфильм, Комедия
Продолжительность: 01:14:11
Перевод: Не требуется
Режиссер: Армен Адилханян
В ролях: Велимир Русаков, Александр Гордон, Ольга Иванова, Владимир Епифанцев, Антон Масленников, Юрий Стоянов, Александр Носков...
Описание: Они жили в большом доме в центре города, в процессоре компьютера… Прикольная компания таракашек и мышонок Хвост. Вели умные разговоры о жизни, играли в футбол, устраивали гонки на игрушечных машинках и все время думали: что бы такое съесть да как бы отбиться от жуков-носорогов и не попасть на обед обжоры-кота и хищников-голубей. А однажды еще и любовь нагрянула, нежданно негаданно! Проблем прибавилось. Как добиться взаимности в любви, находясь на низшей ступени пищевой пирамиды?!
Формат 3d: Anamorph OverUnder
Качество: BDrip
Контейнер: MKV
Видео: AVC / 1920х1080p / 23,976 fps / 6 819 Kbps
Аудио: AC3 / 6 ch / 640 Kbps / 48 KHz

MediaInfo

General
UniqueID : 254400644272898300415044323879531679287 (0xBF63C8287A94E86EB27CF680E7298E37)
Complete name : F:\Downloads\Kukaracha.3D.halfOU.AC3.ash61.mkv
Format : Matroska
File size : 3.94 GiB
Duration : 1h 14mn
Overall bit rate : 7 611 Kbps
Encoded date : UTC 2011-06-12 11:37:32
Writing application : mkvmerge v3.4.0 ('Rapunzel') сборка от May 15 2010 09:38:20
Writing library : libebml v0.8.0 + libmatroska v0.9.0
Video
ID : 1
Format : AVC
Format/Info : Advanced Video Codec
Format profile : High@L4.1
Format settings, CABAC : Yes
Format settings, ReFrames : 4 frames
Codec ID : V_MPEG4/ISO/AVC
Duration : 1h 14mn
Bit rate : 6 819 Kbps
Width : 1 920 pixels
Height : 1 080 pixels
Display aspect ratio : 0.889
Original display aspect ratio : 16:9
Frame rate : 23.976 fps
Color space : YUV
Chroma subsampling : 4:2:0
Bit depth : 8 bits
Scan type : Progressive
Bits/(Pixel*Frame) : 0.137
Stream size : 3.53 GiB (90%)
Title : Rip by Ash61
Writing library : x264 core 113 r1884 7313bb5
Encoding settings : cabac=1 / ref=4 / deblock=1:-1:-1 / analyse=0x3:0x113 / me=umh / subme=9 / psy=1 / psy_rd=1.00:0.15 / mixed_ref=1 / me_range=16 / chroma_me=1 / trellis=1 / 8x8dct=1 / cqm=0 / deadzone=21,11 / fast_pskip=1 / chroma_qp_offset=-3 / threads=3 / sliced_threads=0 / nr=0 / decimate=1 / interlaced=0 / constrained_intra=0 / bframes=4 / b_pyramid=2 / b_adapt=2 / b_bias=0 / direct=3 / weightb=1 / open_gop=0 / weightp=2 / keyint=250 / keyint_min=23 / scenecut=40 / intra_refresh=0 / rc_lookahead=40 / rc=crf / mbtree=1 / crf=20.0 / qcomp=0.60 / qpmin=0 / qpmax=69 / qpstep=4 / ip_ratio=1.40 / aq=1:1.00
Audio
ID : 2
Format : AC-3
Format/Info : Audio Coding 3
Mode extension : CM (complete main)
Codec ID : A_AC3
Duration : 1h 14mn
Bit rate mode : Constant
Bit rate : 640 Kbps
Channel(s) : 6 channels
Channel positions : Front: L C R, Side: L R, LFE
Sampling rate : 48.0 KHz
Bit depth : 16 bits
Compression mode : Lossy
Stream size : 340 MiB (8%)
Language : Russian
Menu
00:00:00.000 : en:01
00:07:14.768 : en:02
00:13:56.544 : en:03
00:20:23.722 : en:04
00:27:25.352 : en:05
00:34:47.335 : en:06
00:41:32.031 : en:07
00:48:09.595 : en:08
00:54:37.441 : en:09
01:01:31.730 : en:10
01:08:16.759 : en:11
01:12:50.825 : en:12

Скриншоты

Лог кодирования

Благодарности релизеру (2)

Торрент:

Статус:

Размер:

Зарегистрирован   [ 2011-06-12 16:49 ]

проверено

3.94 GB

 
 Мнение о фильме (4)





Пожалуйста, девочки-мальчики! Уж не знаю насколько понравится этот мульт. Отзывы о сюжете читал только отрицательные, но 3д, судя по отрывкам, в норме.
 

Мульт вообще то редкое фуфло. Я бы не стал качать даже ради 3D. Простое есть такие "произведения" искусства, которые ничем не спасешь.
 

Zagg
Полностью согласен. после первых 5-и минут выключил и дальше желания смотреть нет.
 

Фильм как будто растянут.
ожидаешь действий, а только невразумительные диалоги, иногда складывается впечатление, че смысл происходящего совершенно теряется.
А в этих голубях-попугаях угадываются Пигвины-из-Мадагаскара.
Видеоряд сумасшедший- глаза вылазят, смена поляризации ничего не меняет.
В общем странно.э