Торренты   
 
 


35mm 3D Special [2011 г, 1080p, HDTVrip, Anamorph SideBySide]

Рейтинг 3D:
Пока никто не голосовал
Рейтинг фильма:
Пока никто не голосовал
 
Вы должны быть авторизированы,
чтобы ставить оценки


35mm 3D Special
Год выпуска: 2011
Страна: Великобритания
Продолжительность: 00:21:16
Перевод: Отсутствует
Язык: Английский
Ведущий: Mark Dolan
Описание: Телепередача из The London Film Museum, состоящая из трейлеров к новым 3Д фильмам, слегка разбавленная рассказом ведущего. Трейлеры не те, что уже были на трекере.
В передаче представлены:
1. Пираты Карибского моря: На странных берегах
http://www.kinopoisk.ru/level/1/film/427076/
2. Трансформеры 3: Тёмная сторона Луны
http://www.kinopoisk.ru/level/1/film/452899/
3. Тор (Thor)
http://www.kinopoisk.ru/level/1/film/258941/
4. Пастырь (Priest)
http://www.kinopoisk.ru/level/1/film/258759/
5. Тайна красной планеты (Mars Needs Moms)
http://www.kinopoisk.ru/level/1/film/441432/
6. Тачки 2 (Cars 2)
http://www.kinopoisk.ru/level/1/film/409013/
7. Смурфики (The Smurfs)
http://www.kinopoisk.ru/level/1/film/178591/
8. Кунг-фу Панда 2
http://www.kinopoisk.ru/level/1/film/427878/
9. Мушкетеры (The Three Musketeers)
http://www.kinopoisk.ru/level/1/film/474752/
Формат 3d: Anamorph SideBySide
Порядок ракурсов: Параллельная пара
Качество: HDTVrip
Контейнер: MKV
Видео: AVC / 1920х1080p / 25 fps / 4 407 Kbps
Аудио: AC3 / 2 ch / 192 Kbps / 48 KHz

MediaInfo

General
UniqueID : 251384351450315295275137759290108401542 (0xBD1EDD70B225659C912C38AB3537D786)
Complete name : F:\Downloads\35mm - 3D Special 2.mkv
Format : Matroska
File size : 700 MiB
Duration : 21mn 16s
Overall bit rate : 4 600 Kbps
Encoded date : UTC 2011-06-11 02:20:57
Writing application : mkvmerge v4.7.0 ('Just Like You Imagined') built on Apr 21 2011 01:13:14
Writing library : libebml v1.2.0 + libmatroska v1.1.0
Video
ID : 1
Format : AVC
Format/Info : Advanced Video Codec
Format profile : High@L4.1
Format settings, CABAC : Yes
Format settings, ReFrames : 4 frames
Format settings, GOP : M=4, N=16
Codec ID : V_MPEG4/ISO/AVC
Duration : 21mn 16s
Bit rate : 4 407 Kbps
Width : 1 920 pixels
Height : 1 080 pixels
Display aspect ratio : 16:9
Frame rate : 25.000 fps
Color space : YUV
Chroma subsampling : 4:2:0
Bit depth : 8 bits
Scan type : Progressive
Bits/(Pixel*Frame) : 0.085
Stream size : 657 MiB (94%)
Writing library : x264 core 115 r1995 c1e60b9
Encoding settings : cabac=1 / ref=3 / deblock=1:0:0 / analyse=0x3:0x113 / me=hex / subme=5 / psy=1 / psy_rd=1.00:0.00 / mixed_ref=1 / me_range=16 / chroma_me=1 / trellis=1 / 8x8dct=1 / cqm=0 / deadzone=21,11 / fast_pskip=1 / chroma_qp_offset=0 / threads=3 / sliced_threads=0 / nr=0 / decimate=1 / interlaced=0 / bluray_compat=0 / constrained_intra=0 / bframes=3 / b_pyramid=2 / b_adapt=1 / b_bias=0 / direct=1 / weightb=1 / open_gop=0 / weightp=2 / keyint=250 / keyint_min=25 / scenecut=40 / intra_refresh=0 / rc_lookahead=40 / rc=2pass / mbtree=1 / bitrate=4407 / ratetol=1.0 / qcomp=0.60 / qpmin=0 / qpmax=69 / qpstep=4 / cplxblur=20.0 / qblur=0.5 / ip_ratio=1.40 / aq=1:1.00
Audio
ID : 2
Format : AC-3
Format/Info : Audio Coding 3
Format profile : Dolby Digital
Mode extension : CM (complete main)
Codec ID : A_AC3
Duration : 21mn 16s
Bit rate mode : Constant
Bit rate : 192 Kbps
Channel(s) : 2 channels
Channel positions : Front: L R
Sampling rate : 48.0 KHz
Bit depth : 16 bits
Compression mode : Lossy
Video delay : 128ms
Stream size : 29.2 MiB (4%)
Language : English

Скриншоты

Благодарности релизеру (0)

Торрент:

Статус:

Размер:

Зарегистрирован   [ 2011-06-14 15:04 ]

проверено

700 MB