Торренты   
 
 


Очарование коралловым рифом / Fascination Coral Reef / Faszination Korallenriff [2011г, 1080p, BDrip, Anamorph OverUnder]

Рейтинг 3D:
Пока никто не голосовал
Рейтинг фильма:
Пока никто не голосовал
 
Вы должны быть авторизированы,
чтобы ставить оценки


Очарование коралловым рифом / Fascination Coral Reef / Faszination Korallenriff
Год выпуска: 2011
Страна: Германия
Жанр: Документальный, Видовой
Продолжительность: 00:44:37
Перевод: Отсутствует
Язык: Английский, немецкий
Описание: Красивый и расслабляющий фильм в формате 3D приглашает Вас отправится в коралловое путешествие. Яркие краски обитателей кораллового Мира, флора и фауна которую могут увидеть только профессиональные ныряльщики. От шаровых рыб, морских ежей, до гигантский акул. Вы будете удивлены многочисленности глубоководных жителей нашей планеты. Самые современные 3D-технологии показывают вам подводный мир в вашей комнате отдыха.
Доп. информация: Это не IMAX! Нет того профессионализма и финансирования. 3д в порядке.
Формат 3d: Anamorph OverUnder
Качество: BDrip
Контейнер: MKV
Видео: AVC / 1920х1080p / 23,976 fps / 15.9 Mbps
Аудио#1: Английский+Музыка / AC3 / 6 ch / 640 Kbps / 48 KHz
Аудио#2: Музыка / AC3 / 6 ch / 640 kbps / 48 KHz
Аудио#3: Немецкий+Музыка / AC3 / 6 ch / 640 kbps / 48 KHz (Отдельным файлом)

MediaInfo

General
UniqueID : 181125029804667382804221578028754798686 (0x8843696F84AE2906B084D9AD51C6085E)
Complete name : F:\Downloads\FaszinationKorallenriff.3D.halfOU.ash61.mkv
Format : Matroska
File size : 5.47 GiB
Duration : 44mn 38s
Overall bit rate : 17.5 Mbps
Encoded date : UTC 2011-06-15 07:39:32
Writing application : mkvmerge v3.4.0 ('Rapunzel') сборка от May 15 2010 09:38:20
Writing library : libebml v0.8.0 + libmatroska v0.9.0
Video
ID : 1
Format : AVC
Format/Info : Advanced Video Codec
Format profile : High@L4.1
Format settings, CABAC : Yes
Format settings, ReFrames : 4 frames
Codec ID : V_MPEG4/ISO/AVC
Duration : 44mn 38s
Bit rate : 15.9 Mbps
Width : 1 920 pixels
Height : 1 080 pixels
Display aspect ratio : 16:9
Frame rate : 23.976 fps
Color space : YUV
Chroma subsampling : 4:2:0
Bit depth : 8 bits
Scan type : Progressive
Bits/(Pixel*Frame) : 0.320
Stream size : 4.96 GiB (91%)
Title : Rip by Ash61
Writing library : x264 core 113 r1884 7313bb5
Encoding settings : cabac=1 / ref=4 / deblock=1:-1:-1 / analyse=0x3:0x113 / me=umh / subme=9 / psy=1 / psy_rd=1.00:0.15 / mixed_ref=1 / me_range=16 / chroma_me=1 / trellis=1 / 8x8dct=1 / cqm=0 / deadzone=21,11 / fast_pskip=1 / chroma_qp_offset=-3 / threads=3 / sliced_threads=0 / nr=0 / decimate=1 / interlaced=0 / constrained_intra=0 / bframes=4 / b_pyramid=2 / b_adapt=2 / b_bias=0 / direct=3 / weightb=1 / open_gop=0 / weightp=2 / keyint=250 / keyint_min=23 / scenecut=40 / intra_refresh=0 / rc_lookahead=40 / rc=crf / mbtree=1 / crf=18.0 / qcomp=0.60 / qpmin=0 / qpmax=69 / qpstep=4 / ip_ratio=1.40 / aq=1:1.00
Audio #1
ID : 2
Format : AC-3
Format/Info : Audio Coding 3
Mode extension : CM (complete main)
Codec ID : A_AC3
Duration : 44mn 38s
Bit rate mode : Constant
Bit rate : 640 Kbps
Channel(s) : 6 channels
Channel positions : Front: L C R, Side: L R, LFE
Sampling rate : 48.0 KHz
Bit depth : 16 bits
Compression mode : Lossy
Stream size : 204 MiB (4%)
Title : Музыка + Комментарий
Language : English
Audio #2
ID : 3
Format : AC-3
Format/Info : Audio Coding 3
Mode extension : CM (complete main)
Codec ID : A_AC3
Duration : 44mn 38s
Bit rate mode : Constant
Bit rate : 640 Kbps
Channel(s) : 6 channels
Channel positions : Front: L C R, Side: L R, LFE
Sampling rate : 48.0 KHz
Bit depth : 16 bits
Compression mode : Lossy
Stream size : 204 MiB (4%)
Title : Музыка без комментария
Menu
00:00:00.000 : en:1
00:09:55.762 : en:2
00:20:18.175 : en:3
00:32:46.798 : en:4
00:44:27.957 : en:5

Скриншоты

Лог кодирования

Благодарности релизеру (0)

Торрент:

Статус:

Размер:

Зарегистрирован   [ 2011-06-15 14:03 ]

проверено

5.67 GB

 
Комментарии:

Пред.  1, 2






Я не настолько богат, чтобы покупать БД. Качать и писать! :)
 

Это к переводчикам-озвучивальщикам. А я только рипер. :)
Ты ж вроде по-ангельски понимаешь, Dron.
Не я же один этот фильм сиотрю ...
 

Спасибо за красивый фильм!
 

САША СПАСИБО БОЛЬШОЕ за этот видовой фильм !!! Говорят качество супер. С удовольствием качаю !!!
 

Во, Оленька объявилась! Пожалуйста, дорогая!
Да обычное качество, и по содержимому - не IMAX. :)
 

И от меня спасибо большое!
 

Да-а-а, очень красиво! :)
 

ребята !!!! вопос. почему этот фильм на lg 575 идет с 3 д от которого глаза режет???? скачал 3 док фильма такая же беда((( что делать? настройки не помогают.
 

rezo-111
Может быть у телека количество кадров недостаточное. Может быть нужно ракурсы местами поменять. Трудно сказать, слишком мало инфы.
 

прекрасный стереоэффект качество отличное
имхо лучше чем аймакс
 

прекрасный стереоэффект качество отличное
имхо лучше чем аймакс
Чук и Гек поменяй глаза прав на левый левый на правый в трансмиттере, у меня тож так было поначалу поменял, обалдел - прямо там среди рыб сидишь на своем диване
 

Топик был перенесен из форума Документальные фильмы в форум Архив

Dag13
 

Страница 2 из 2

Пред.  1, 2