Торренты   
 
 

 

Samsung SM Town [2011г, 1080p, BDrip, Anamorph OverUnder]

Рейтинг 3D:
1 голосов
8.0
Рейтинг фильма:
1 голосов
6.0
 
Вы должны быть авторизированы,
чтобы ставить оценки


Samsung SM Town

Год выпуска: 2011
Страна: Корея
Жанр: Музыка
Продолжительность: 00:36:14
Описание: Выступления южно-корейских вокал-дэнс групп - концертные и клипы.
Доп.инфо: Посмотреть приятно. 3д в норме. Содержание и тайминг смотрите в МедиаИнфо (внизу).
Формат 3d: Anamorph OverUnder
Качество: BDrip
Контейнер: MKV
Видео: AVC / 1920х1080p / 23,976 fps / 15.6 Mbps
Аудио: AC3 / 6 ch / 640 Kbps / 48 KHz

MediaInfo

General
UniqueID : 186690459292779682940139372487635490522 (0x8C73464B6BD79370BC32557E0569D6DA)
Complete name : F:\Downloads\SamsungSMTown.3D.halfOU.ash61.mkv
Format : Matroska
File size : 4.20 GiB
Duration : 36mn 15s
Overall bit rate : 16.6 Mbps
Encoded date : UTC 2011-06-16 14:02:02
Writing application : mkvmerge v3.4.0 ('Rapunzel') сборка от May 15 2010 09:38:20
Writing library : libebml v0.8.0 + libmatroska v0.9.0
Video
ID : 1
Format : AVC
Format/Info : Advanced Video Codec
Format profile : High@L4.1
Format settings, CABAC : Yes
Format settings, ReFrames : 4 frames
Codec ID : V_MPEG4/ISO/AVC
Duration : 36mn 15s
Bit rate : 15.6 Mbps
Width : 1 920 pixels
Height : 1 080 pixels
Display aspect ratio : 16:9
Frame rate : 23.976 fps
Color space : YUV
Chroma subsampling : 4:2:0
Bit depth : 8 bits
Scan type : Progressive
Bits/(Pixel*Frame) : 0.314
Stream size : 3.96 GiB (94%)
Writing library : x264 core 113 r1884 7313bb5
Encoding settings : cabac=1 / ref=4 / deblock=1:-1:-1 / analyse=0x3:0x113 / me=umh / subme=9 / psy=1 / psy_rd=1.00:0.15 / mixed_ref=1 / me_range=16 / chroma_me=1 / trellis=1 / 8x8dct=1 / cqm=0 / deadzone=21,11 / fast_pskip=1 / chroma_qp_offset=-3 / threads=3 / sliced_threads=0 / nr=0 / decimate=1 / interlaced=0 / constrained_intra=0 / bframes=4 / b_pyramid=2 / b_adapt=2 / b_bias=0 / direct=3 / weightb=1 / open_gop=0 / weightp=2 / keyint=250 / keyint_min=23 / scenecut=40 / intra_refresh=0 / rc_lookahead=40 / rc=crf / mbtree=1 / crf=18.0 / qcomp=0.60 / qpmin=0 / qpmax=69 / qpstep=4 / ip_ratio=1.40 / aq=1:1.00
Audio
ID : 2
Format : AC-3
Format/Info : Audio Coding 3
Mode extension : CM (complete main)
Codec ID : A_AC3
Duration : 36mn 15s
Bit rate mode : Constant
Bit rate : 640 Kbps
Channel(s) : 6 channels
Channel positions : Front: L C R, Side: L R, LFE
Sampling rate : 48.0 KHz
Bit depth : 16 bits
Compression mode : Lossy
Stream size : 166 MiB (4%)
Title : English + Japan
Menu
00:00:00.000 : en:Girls' Generation - Oh! (live)
00:03:26.706 : en:Super Junior - Sorry, Sorry (live)
00:08:49.028 : en:TVXQ! - Maximum (live)
00:12:37.923 : en:BoA - Hurricane Venus (live)
00:16:04.046 : en:Shinee - Ring Ding Dong (live)
00:20:22.178 : en:f(x) - LA chA TA (live)
00:23:54.515 : en:Super Junior + MAX + TRAX - Don't Don (live)
00:29:11.332 : en:Girls' Generation - I Wish... (clip)
00:32:49.549 : en:BoA - Hurricane Venus (clip)

Скриншоты

Лог кодирования

Благодарности релизеру (4)

Торрент:

Статус:

Размер:

Зарегистрирован   [ 2011-06-16 19:05 ]

проверено

4.2 GB