Торренты   
 
 


Самый лучший фильм 3-ДЭ (Кирилл Кузин) [2011 г., HDTVrip, Anamorph SideBySide]

Рейтинг 3D:
15 голосов
6.4
Рейтинг фильма:
13 голосов
6.7
 
Вы должны быть авторизированы,
чтобы ставить оценки


Самый лучший фильм 3-ДЭ
Год выпуска: 2011
Страна: Россия
Жанр: Комедия
Продолжительность: 01:36:37
Перевод: Не требуется
Режиссер: Кирилл Кузин
В ролях: Гарик Харламов, Петр Винс, Екатерина Кузнецова, Александр Балуев, Михаил Ефремов, Александр Семчев, Валентин Смирнитский, Денис Яковлев, Константин Соловьев, Денис Жариков
Описание: Макс Утесов — недооцененный режиссер-любитель. Утесов снимает свои фильмы на любительскую камеру. В это же время российские киноакадемики проводят конкурс «Самый лучший фильм России», в финал которого вышли 7 известнейших кинокартин. До церемонии объявления победителя конкурса пленки с фильмами (все в единственном экземпляре) запираются в сейф.
Но Виктор Палыч подкупает организатора премии Эдуарда Рыкова, чтобы получить картины для нелицензионного копирования. Перевезти фильмы от Рыкова к Виктору Палычу должен Макс Утесов и его друг Саня. Они проваливают задание: пленки сгорают, и друзей начинают разыскивать видеопираты. Единственный способ выжить: за несколько дней переснять знаменитые российские кинокартины. Но вот в чем парадокс: копии Утёсова вполне могут оказаться качественней оригиналов…
Формат 3d: Anamorph SideBySide
Порядок ракурсов: Параллельная пара

Доп. информация

Качество: HDTV
Контейнер: TS
Формат 3D: Half SideBySide / Горизонтальная анаморфная стереопара
Порядок ракурсов: левый ракурс первый
Видео кодек: h.264
Аудиокодек: AC3
Видео: AVC, 6,9 Мбит/сек, 1920x1080i (0,134), 25.000fps,
Аудио: AC-3, 448 Кбит/сек, 2 канала(ов), 48,0 КГц
[url]MediaInfo
Format : MPEG-TS
File size : 5.24 GiB
Duration : 1h 36mn
Overall bit rate : 7 758 Kbps
Video
ID : 322 (0x142)
Menu ID : 14102 (0x3716)
Format : AVC
Format/Info : Advanced Video Codec
Format profile : Main@L4.0
Format settings, CABAC : Yes
Format settings, ReFrames : 3 frames
Codec ID : 27
Duration : 1h 36mn
Bit rate : 6 922 Kbps
Width : 1 920 pixels
Height : 1 080 pixels
Display aspect ratio : 16:9
Frame rate : 25.000 fps
Standard : Component
Color space : YUV
Chroma subsampling : 4:2:0
Bit depth : 8 bits
Scan type : Interlaced
Scan order : Top Field First
Bits/(Pixel*Frame) : 0.134
Stream size : 4.67 GiB (89%)
Color primaries : BT.709-5, BT.1361, IEC 61966-2-4, SMPTE RP177
Transfer characteristics : BT.709-5, BT.1361
Matrix coefficients : BT.709-5, BT.1361, IEC 61966-2-4 709, SMPTE RP177
Audio
ID : 402 (0x192)
Menu ID : 14102 (0x3716)
Format : AC-3
Format/Info : Audio Coding 3
Mode extension : CM (complete main)
Codec ID : 6
Duration : 1h 36mn
Bit rate mode : Constant
Bit rate : 448 Kbps
Channel(s) : 2 channels
Channel positions : Front: L R
Sampling rate : 48.0 KHz
Bit depth : 16 bits
Video delay : 92ms
Stream size : 310 MiB (6%)
Language : Russian
Language, more info : Clean effects

Скриншоты




Благодарности релизеру (14)

Торрент:

Статус:

Размер:

Зарегистрирован   [ 2012-01-06 18:29 ]

проверено

5.24 GB