Торренты   
 
 


Великобритания и Ирландия с воздуха S01E03-04 / Britain & Ireland from the Sky S01E03-04 [1080p, HDTVrip, Anamorph SideBySide]

Рейтинг 3D:
Пока никто не голосовал
Рейтинг фильма:
Пока никто не голосовал
 
Вы должны быть авторизированы,
чтобы ставить оценки


Великобритания и Ирландия с воздуха S01E03-04/ Britain & Ireland from the Sky S01E03-04

Страна: Великобритания
Жанр: Видовой
Продолжительность: 00:21:59 + 00:21:43
Перевод: Отсутствует (не обязателен)
Язык: Английский
Описание: Документальный сериал - Сезон 1; Серии 3 и 4.
Виды Британских островов с высоты птичьего полёта - на природу, архитектурные сооружения, города и даже пром.предприятия.
Серии 1-2 тут
Доп. информация: Всем патриотам Отечества на трекере посвящается! Смотрите и сравнивайте!
Формат 3d: Anamorph SideBySide
Качество: HDTVrip
Контейнер: MKV
Видео: AVC / 1920х1080p / 25.000 fps / ~5550 kbps
Аудио: AC3 / 2 ch / 192 Kbps / 48 KHz

MediaInfo третьей серии (четвёртая практически идентична)

General
UniqueID : 247229121657921105044237875521182998034 (0xB9FE98CB543A2E3DB6EE82E1AAAF9E12)
Complete name : F:\Downloads\Britain-3;4\Britain & Ireland From The Sky S01E03.mkv
Format : Matroska
File size : 900 MiB
Duration : 21mn 59s
Overall bit rate : 5 722 Kbps
Encoded date : UTC 2011-06-17 01:36:20
Writing application : mkvmerge v4.7.0 ('Just Like You Imagined') built on Apr 21 2011 01:13:14
Writing library : libebml v1.2.0 + libmatroska v1.1.0
Video
ID : 1
Format : AVC
Format/Info : Advanced Video Codec
Format profile : High@L4.1
Format settings, CABAC : Yes
Format settings, ReFrames : 4 frames
Format settings, GOP : M=4, N=32
Codec ID : V_MPEG4/ISO/AVC
Duration : 21mn 59s
Bit rate : 5 529 Kbps
Width : 1 920 pixels
Height : 1 080 pixels
Display aspect ratio : 16:9
Frame rate : 25.000 fps
Color space : YUV
Chroma subsampling : 4:2:0
Bit depth : 8 bits
Scan type : Progressive
Bits/(Pixel*Frame) : 0.107
Stream size : 852 MiB (95%)
Writing library : x264 core 115 r1995 c1e60b9
Encoding settings : cabac=1 / ref=3 / deblock=1:0:0 / analyse=0x3:0x113 / me=hex / subme=5 / psy=1 / psy_rd=1.00:0.00 / mixed_ref=1 / me_range=16 / chroma_me=1 / trellis=1 / 8x8dct=1 / cqm=0 / deadzone=21,11 / fast_pskip=1 / chroma_qp_offset=0 / threads=3 / sliced_threads=0 / nr=0 / decimate=1 / interlaced=0 / bluray_compat=0 / constrained_intra=0 / bframes=3 / b_pyramid=2 / b_adapt=1 / b_bias=0 / direct=1 / weightb=1 / open_gop=0 / weightp=2 / keyint=250 / keyint_min=25 / scenecut=40 / intra_refresh=0 / rc_lookahead=40 / rc=2pass / mbtree=1 / bitrate=5529 / ratetol=1.0 / qcomp=0.60 / qpmin=0 / qpmax=69 / qpstep=4 / cplxblur=20.0 / qblur=0.5 / ip_ratio=1.40 / aq=1:1.00
Audio
ID : 2
Format : AC-3
Format/Info : Audio Coding 3
Format profile : Dolby Digital
Mode extension : CM (complete main)
Codec ID : A_AC3
Duration : 21mn 59s
Bit rate mode : Constant
Bit rate : 192 Kbps
Channel(s) : 2 channels
Channel positions : Front: L R
Sampling rate : 48.0 KHz
Bit depth : 16 bits
Compression mode : Lossy
Video delay : 128ms
Stream size : 30.2 MiB (3%)
Language : English
Благодарности релизеру (5)

Торрент:

Статус:

Размер:

Зарегистрирован   [ 2011-06-19 21:43 ]

проверено

1.76 GB