Торренты   
 
 

 

Kylie Minogue - Aphrodite Les Folies Tour 2011 [2011г, 1080p, HDTVrip, Anamorph SideBySide]

Рейтинг 3D:
3 голосов
7.0
Рейтинг фильма:
2 голосов
10
 
Вы должны быть авторизированы,
чтобы ставить оценки


Kylie Minogue - Aphrodite Les Folies Tour 2011
Год выпуска: 2011
Страна: Великобритания
Жанр: Музыка
Продолжительность: 01:31:08
Перевод: Не требуется
Описание: Live at O2 Arena London 11-12 April 2011.
Это не просто концерт - это просто шикарное шоу!!! В концерте представлены не только новые песни, но и хорошо известные в совершенно новой аранжировке.
Запись со Sky 3D TV.

Track List

1. Intro
2. Aphrodite
3. The One
4. Wow
5. Illusion
6. I Believe in You
7. Cupid Boy
8. Get Outta My Way
9. Everything Is Beautiful
10. Slow
11. Confide in Me
12. Can't Get You Out of My Head
13. Looking for an Angel
14. Closer
15. There Must Be an Angel (Playing with My Heart)(Eurythmics cover)
16. Love at First Sight
17. Better the Devil You Know
18. Put Your Hands Up (If You Feel Love)
19. On a Night Like This
20. All the Lovers
Доп. информация: Впервые я увидел Кайли в конце 80-х - это была простенькая австралийская юная девушка! Каково же было моё удивление, когда я увидел её в районе 2000-го года - невозможно было узнать в ней ту простушку - это была зрелая красавица! И вот ей уже за сорок, а точёная фигурка как у двадцатилетней (что она и не стесняется показывать)! Это как раз тот случай, когда женщина становится только красивее и утончённее с годами! (ash61)
Формат 3d: Anamorph SideBySide
Порядок ракурсов: Параллельная пара
Качество: HDTVrip
Контейнер: MKV
Видео: AVC / 1920х1080p / 25.000 fps / 11.8 Mbps
Аудио: AC3 / 6 ch / 448 Kbps / 48 KHz

MediaInfo

General
UniqueID : 182791781455085408330386991688249258391 (0x89846AA2F84CB663B1A281E680083197)
Complete name : F:\Downloads\Kylie.Minogue.Aphrodite.Les.Folies.Tour.2011.3D.H-SBS.AC3.6CH.H264-3D4U.mkv
Format : Matroska
File size : 7.93 GiB
Duration : 1h 31mn
Overall bit rate : 12.5 Mbps
Movie name : Kylie Aphrodite LIVE 3D - 3D4U
Encoded date : UTC 2011-06-20 21:55:25
Writing application : mkvmerge v4.7.0 ('Just Like You Imagined') built on Apr 21 2011 01:13:14
Writing library : libebml v1.2.0 + libmatroska v1.1.0
Video
ID : 1
Format : AVC
Format/Info : Advanced Video Codec
Format profile : Main@L4.0
Format settings, CABAC : Yes
Format settings, ReFrames : 2 frames
Codec ID : V_MPEG4/ISO/AVC
Duration : 1h 31mn
Bit rate mode : Variable
Bit rate : 11.8 Mbps
Maximum bit rate : 18.0 Mbps
Width : 1 920 pixels
Height : 1 080 pixels
Display aspect ratio : 16:9
Frame rate : 25.000 fps
Color space : YUV
Chroma subsampling : 4:2:0
Bit depth : 8 bits
Scan type : Progressive
Bits/(Pixel*Frame) : 0.227
Stream size : 7.49 GiB (94%)
Language : English
Audio
ID : 2
Format : AC-3
Format/Info : Audio Coding 3
Mode extension : CM (complete main)
Codec ID : A_AC3
Duration : 1h 31mn
Bit rate mode : Constant
Bit rate : 448 Kbps
Channel(s) : 6 channels
Channel positions : Front: L C R, Side: L R, LFE
Sampling rate : 48.0 KHz
Bit depth : 16 bits
Compression mode : Lossy
Stream size : 292 MiB (4%)
Language : English

Скриншоты

Благодарности релизеру (0)

Торрент:

Статус:

Размер:

Зарегистрирован   [ 2011-10-23 17:44 ]

проверено

7.93 GB

 
Комментарии:

Пред.  1, 2






ash61 Спасибо за праздник! Качество хорошее и без черных полос ....были бы все обрезаны...
 

3D-FAN, чёрные полосы делают не рипперы, а издатели!
 

Отличный концерт! Спасибо!
 

Наконец то посмотрел сей шедевр! Респект, Саша! Ну и Келли тож респект.
Красочное, насыщенное шоу, на которое и в живую сходить не жалко бабур потратить...
Далековато нашим попсятникам еще....
 

Пожалуйста! Мне тоже понравилось. А на рутрекере нашлись люди, назвавшие шоу скучным или типа того. :D
Только она не Келли, а Кайли. :)
 

ash61
Да какая разница... Главное, шоу интерестное.
 

64 сидера... скорость 0... :( Встаньте на раздачу, ПЛЗ!!!
 

Спасибо за труды.
 

Сенкс раздающему. Но щоу - говно, ни однаво хита одна пля херота. Кайли опозорилась пот сраку лет, а если у нее до этава чуда были концерты такие жо то она ваще ччмо.
 

Чесна сказал
 

СПАСИБО!!!
 

Всем пожалуйста!
"Правильный" релиз тут - http://torrents3d.ru/viewtopic.php?t=2257
Просьба к модераторам "поглотить" данный релиз. :)
 

Топик был перенесен из форума Музыкальные клипы и концерты в форум Архив

Dag13
 

Страница 2 из 2

Пред.  1, 2