Торренты   
 
 

 

Как приручить дракона 3D / How to Train Your Dragon 3D (Дин ДеБлуа, Крис Сан) [BDrip, 2010, 1080p, Anaglyph, red'cyan (Dubois)]

Рейтинг 3D:
151 голосов
8.7
Рейтинг фильма:
156 голосов
9.0
 
Вы должны быть авторизированы,
чтобы ставить оценки


Как приручить дракона 3D / How to Train Your Dragon 3D
Год выпуска: 2010
Страна: США
Студия: DreamWorks Animation
Жанр: мультфильм, фэнтези, комедия, приключения, семейны
Продолжительность: 01:37:52
Перевод: Профессиональный (дублированный)
Русские субтитры: нет
Режиссер на русском: Дин ДеБлуа, Крис Сан
Режиссер на английском: Dean DeBlois, Chris
Роли озвучивали:
— Андрей Лёвин — Иккинг Кровожадный Карасик III
— Михаил Боярский — Плевака
— Софья Ануфриева — Астрид Хофферсон
— Валерий Соловьёв — Стоик Обширный
и другие.
Описание: Иккинг Кровожадный Карасик III, наследник трона королевства викингов, страдает от одной маленькой проблемы: он не герой. В отчаянии отправившись на поиски самого большого и злобного дракона на свете, чтобы убить его и пройти обряд инициации, он находит крошечную беззубую рептилию. Вдвоем они пускаются на поиски приключений, чтобы каждый мог заслужить уважение своего племени.
Качество: BDrip
Контейнер: MKV
Формат 3d: Anaglyph (Дюбуа)
Цвета очков:

MediaInfo

General
Format : Matroska
File size : 6.02 GiB
Duration : 1h 37mn
Overall bit rate : 8 790 Kbps
Encoded date : UTC 2011-06-20 12:09:02
Writing application : mkvmerge v4.4.0 ('Die Wiederkehr') сборка от Oct 31 2010 21:52:48
Writing library : libebml v1.0.0 + libmatroska v1.0.0
Video
ID : 1
Format : AVC
Format/Info : Advanced Video Codec
Format profile : High@L4.0
Format settings, CABAC : Yes
Format settings, ReFrames : 4 frames
Codec ID : V_MPEG4/ISO/AVC
Duration : 1h 37mn
Bit rate : 7 975 Kbps
Width : 1 920 pixels
Height : 1 080 pixels
Display aspect ratio : 16:9
Frame rate : 23.976 fps
Color space : YUV
Chroma subsampling : 4:2:0
Bit depth : 8 bits
Scan type : Progressive
Bits/(Pixel*Frame) : 0.160
Stream size : 5.46 GiB (91%)
Title : Anaglyth Dubois by Boss-Master
Writing library : x264 core 115 r1995 c1e60b9
Encoding settings : cabac=1 / ref=4 / deblock=1:-2:-2 / analyse=0x3:0x113 / me=umh / subme=7 / psy=1 / psy_rd=1.00:0.15 / mixed_ref=1 / me_range=16 / chroma_me=1 / trellis=2 / 8x8dct=1 / cqm=0 / deadzone=21,11 / fast_pskip=1 / chroma_qp_offset=-3 / threads=6 / sliced_threads=0 / nr=0 / decimate=1 / interlaced=0 / bluray_compat=0 / constrained_intra=0 / bframes=6 / b_pyramid=0 / b_adapt=2 / b_bias=0 / direct=3 / weightb=1 / open_gop=0 / weightp=2 / keyint=250 / keyint_min=23 / scenecut=40 / intra_refresh=0 / rc_lookahead=40 / rc=crf / mbtree=1 / crf=18.0 / qcomp=0.60 / qpmin=10 / qpmax=69 / qpstep=4 / ip_ratio=1.40 / aq=1:1.00
Language : Russian
Audio
ID : 2
Format : AC-3
Format/Info : Audio Coding 3
Mode extension : CM (complete main)
Codec ID : A_AC3
Duration : 1h 37mn
Bit rate mode : Constant
Bit rate : 640 Kbps
Channel(s) : 6 channels
Channel positions : Front: L C R, Side: L R, LFE
Sampling rate : 48.0 KHz
Bit depth : 16 bits
Compression mode : Lossy
Stream size : 449 MiB (7%)
Language : Russian

Скриншоты (Смотреть в очках Red/Cyan)

Остальные раздачи этого фильма (8)
Благодарности релизеру (0)

Торрент:

Статус:

Размер:

Зарегистрирован   [ 2011-06-20 19:20 ]

проверено

6.02 GB

 
 Мнение о фильме (46)

1, 2, 3  След.






3Д эффекты на высоте спасибо
 

Ржака мульт ))) Спасибо
 

Спасибо! Мой первый фильм, посмотренный в 3D. Восторг!
 

Спасибо за рип)) Мульт убойный, а в 3D еще лучше)
 

а в 3D еще лучше)
Не зря же он получил премию Веницианского кинофестиваля, как лучший 3D фильм!
И кстати, один из немногих редких фильмов, в котором стереоскопия эффективно используется не просто как примитивный развлекательный атракцион, но и как художественное изобразительное средство, подчеркивающее сюжет и эмоциональное восприятие сцены зрителем.
 

Посмотрели мултьт,класный понравился всем,я редко смотрю но этот посмотрю еще раз,спасибо
 

Суперский!
 

Мульт отличный ! Спасибо.
 

В конце без ноги остался!
 

Люблю мульты.Уже смотрел,но пересмотрю ещё и в 3D
 

Классный, семейный мультфильм. Посмотрите обязательно, кто это еще не сделал
 

Хороший фильм. Спасибо.
 

Очень хороший, поучительный мультфильм! Благодарю!
 

Классный мульт! 3д оч. даже ни чего. СПС
 

мультик супер 3д зачет
 

спасибо
 

Смотрел в 2D, теперь заценю в 3D. Спасибо ash61.
 

Хороший мульт, посмотрел с удовольствием. Качество 3D - отличное! Спасибо автору раздачи!
 

Бесподобный мульт! Качество отличное!
 

Мульт превосходный.3D превосходное.CПАСИБО.
 

Страница 1 из 3

1, 2, 3  След.