Торренты   
 
 

 

Мой кровавый Валентин / My Bloody Valentine [2009г, 1080p, BDrip, Anamorph OverUnder]

Рейтинг 3D:
7 голосов
8.7
Рейтинг фильма:
7 голосов
6.9
 
Вы должны быть авторизированы,
чтобы ставить оценки


Мой кровавый Валентин / My Bloody Valentine
Год выпуска: 2009
Страна: США
Жанр: Ужасы, Триллер, Детектив
Продолжительность: 01:41:00
Перевод: Профессиональный (полное дублирование)
Режиссер: Патрик Люссье / Patrick Lussier
В ролях: Дженсен Эклс, Джейми Кинг, Керр Смит, Бетси Ру, Эди Гатеги, Том Аткинс, Кевин Тай, Меган Бун, Карен Баумм, Джой Де Ла Пас
Описание: Том возвращается в родной городок, спустя 10 лет после ужасных событий, произошедших в День святого Валентина. С приездом молодого человека жители города начинают умирать от рук неизвестного маньяка, и подозрения сразу же падают на Тома. Вместе с девушкой Сарой, в которую он когда-то был влюблен, Том обязан найти неуловимого убийцу…

Формат 3d: Anamorph OverUnder
Качество: BDrip
Контейнер: MKV
Видео: AVC / 1920х1080p / 23,976 fps / 6 501 Kbps
Аудио#1: Русский / AC3 / 5.1 ch / 448 Kbps / 48 KHz
Аудио#2: Английский / AC3 / 5.1 ch / 640 kbps / 48 KHz

MediaInfo

General
Unique ID : 184432086630427689845557155480945444603 (0x8AC053ECFA2E3E0A973A71D0EB1E46FB)
Complete name : F:\Downloads\MyBloodyValentine3D.halfOU.AC3.ash61.mkv
Format : Matroska
File size : 5.46 GiB
Duration : 1h 41mn
Overall bit rate : 7 743 Kbps
Encoded date : UTC 2011-06-28 09:39:31
Writing application : mkvmerge v3.4.0 ('Rapunzel') сборка от May 15 2010 09:38:20
Writing library : libebml v0.8.0 + libmatroska v0.9.0
Video
ID : 1
Format : AVC
Format/Info : Advanced Video Codec
Format profile : High@L4.1
Format settings, CABAC : Yes
Format settings, ReFrames : 4 frames
Codec ID : V_MPEG4/ISO/AVC
Duration : 1h 41mn
Bit rate : 6 501 Kbps
Width : 1 920 pixels
Height : 1 080 pixels
Display aspect ratio : 16:9
Frame rate : 23.976 fps
Color space : YUV
Chroma subsampling : 4:2:0
Bit depth : 8 bits
Scan type : Progressive
Bits/(Pixel*Frame) : 0.131
Stream size : 4.59 GiB (84%)
Writing library : x264 core 113 r1884 7313bb5
Encoding settings : cabac=1 / ref=4 / deblock=1:-1:-1 / analyse=0x3:0x113 / me=umh / subme=9 / psy=1 / psy_rd=1.00:0.15 / mixed_ref=1 / me_range=16 / chroma_me=1 / trellis=2 / 8x8dct=1 / cqm=0 / deadzone=21,11 / fast_pskip=1 / chroma_qp_offset=-3 / threads=3 / sliced_threads=0 / nr=0 / decimate=1 / interlaced=0 / constrained_intra=0 / bframes=6 / b_pyramid=2 / b_adapt=2 / b_bias=0 / direct=3 / weightb=1 / open_gop=0 / weightp=2 / keyint=250 / keyint_min=23 / scenecut=40 / intra_refresh=0 / rc_lookahead=60 / rc=crf / mbtree=1 / crf=18.0 / qcomp=0.60 / qpmin=0 / qpmax=69 / qpstep=4 / ip_ratio=1.40 / aq=1:1.00
Audio #1
ID : 2
Format : AC-3
Format/Info : Audio Coding 3
Mode extension : CM (complete main)
Codec ID : A_AC3
Duration : 1h 41mn
Bit rate mode : Constant
Bit rate : 448 Kbps
Channel(s) : 6 channels
Channel positions : Front: L C R, Side: L R, LFE
Sampling rate : 48.0 KHz
Bit depth : 16 bits
Compression mode : Lossy
Delay relative to video : 300ms
Stream size : 324 MiB (6%)
Language : Russian
Audio #2
ID : 3
Format : AC-3
Format/Info : Audio Coding 3
Mode extension : CM (complete main)
Codec ID : A_AC3
Duration : 1h 41mn
Bit rate mode : Constant
Bit rate : 640 Kbps
Channel(s) : 6 channels
Channel positions : Front: L C R, Side: L R, LFE
Sampling rate : 48.0 KHz
Bit depth : 16 bits
Compression mode : Lossy
Stream size : 462 MiB (8%)
Language : English
Menu
00:00:00.000 : :01
00:05:06.765 : :02
00:09:27.442 : :03
00:12:44.806 : :04
00:18:35.990 : :05
00:24:29.927 : :06
00:29:03.867 : :07
00:37:41.176 : :08
00:46:00.716 : :09
00:52:14.757 : :10
00:58:13.156 : :11
01:06:31.571 : :12
01:13:08.467 : :13
01:18:36.837 : :14
01:27:49.139 : :15
01:32:56.404 : :16

Скриншоты

Лог кодирования

Благодарности релизеру (14)

Торрент:

Статус:

Размер:

Зарегистрирован   [ 2011-09-08 13:07 ]

проверено

5.46 GB