Торренты   
 
 


Великобритания и Ирландия с воздуха S01E07-08 / Britain & Ireland from the Sky S01E07-08 [1080p, HDTVrip, Anamorph SideBySide]

Рейтинг 3D:
Пока никто не голосовал
Рейтинг фильма:
Пока никто не голосовал
 
Вы должны быть авторизированы,
чтобы ставить оценки


Великобритания и Ирландия с воздуха S01E07-08 / Britain & Ireland from the Sky S01E07-08

Год выпуска: 2011
Страна: Великобритания
Жанр: Видовой
Продолжительность: 00:21:51 + 00:22:19
Перевод: Отсутствует (не обязателен)
Язык: Английский
Описание:
Документальный сериал - Сезон 1; Серии 7 и 8.
Виды Британских островов с высоты птичьего полёта - на природу, архитектурные сооружения, города и даже пром.предприятия.
Серии 1-2 тут
Серии 3-4 тут
Серии 5-6 тут
Доп. информация:
В фильмах столько красивых видов, что даже было затруднительно выбрать наиболее достойные для скринов! Жаль, что всего лишь HDTV качество!
Формат 3d: Anamorph SideBySide
Качество: HDTVrip
Контейнер: MKV
Видео: AVC / 1920х1080p / 25.000 fps / ~5400 kbps
Аудио: AC3 / 6 ch / 384 Kbps / 48 KHz

MediaInfo седьмой серии (восьмая практически идентична)

General
Unique ID : 175943792633288039172732870799784953752 (0x845D8AB8653A140F9CC3AC6031004798)
Complete name : Britain & Ireland From The Sky S01E07.mkv
Format : Matroska
File size : 900 MiB
Duration : 21mn 51s
Overall bit rate : 5 755 Kbps
Encoded date : UTC 2011-07-01 01:30:03
Writing application : mkvmerge v4.7.0 ('Just Like You Imagined') built on Apr 21 2011 01:13:14
Writing library : libebml v1.2.0 + libmatroska v1.1.0
Video
ID : 1
Format : AVC
Format/Info : Advanced Video Codec
Format profile : High@L4.0
Format settings, CABAC : Yes
Format settings, ReFrames : 4 frames
Codec ID : V_MPEG4/ISO/AVC
Duration : 21mn 51s
Bit rate : 5 372 Kbps
Width : 1 920 pixels
Height : 1 080 pixels
Display aspect ratio : 16:9
Frame rate : 25.000 fps
Color space : YUV
Chroma subsampling : 4:2:0
Bit depth : 8 bits
Scan type : Progressive
Bits/(Pixel*Frame) : 0.104
Stream size : 822 MiB (91%)
Writing library : x264 core 115 r1995 c1e60b9
Encoding settings : cabac=1 / ref=3 / deblock=1:0:0 / analyse=0x3:0x113 / me=hex / subme=7 / psy=1 / psy_rd=1.00:0.00 / mixed_ref=1 / me_range=16 / chroma_me=1 / trellis=1 / 8x8dct=1 / cqm=0 / deadzone=21,11 / fast_pskip=1 / chroma_qp_offset=-2 / threads=3 / sliced_threads=0 / nr=0 / decimate=1 / interlaced=0 / bluray_compat=0 / constrained_intra=0 / bframes=3 / b_pyramid=2 / b_adapt=1 / b_bias=0 / direct=1 / weightb=1 / open_gop=0 / weightp=2 / keyint=250 / keyint_min=25 / scenecut=40 / intra_refresh=0 / rc_lookahead=40 / rc=2pass / mbtree=1 / bitrate=5372 / ratetol=1.0 / qcomp=0.60 / qpmin=0 / qpmax=69 / qpstep=4 / cplxblur=20.0 / qblur=0.5 / ip_ratio=1.40 / aq=1:1.00
Audio
ID : 2
Format : AC-3
Format/Info : Audio Coding 3
Mode extension : CM (complete main)
Codec ID : A_AC3
Duration : 21mn 51s
Bit rate mode : Constant
Bit rate : 384 Kbps
Channel(s) : 6 channels
Channel positions : Front: L C R, Side: L R, LFE
Sampling rate : 48.0 KHz
Bit depth : 16 bits
Compression mode : Lossy
Delay relative to video : 64ms
Stream size : 60.0 MiB (7%)
Language : English

Скриншоты

e07


e08

Благодарности релизеру (2)

Торрент:

Статус:

Размер:

Зарегистрирован   [ 2011-07-02 09:28 ]

проверено

1.76 GB