Торренты   
 
 

 

Краткая история 3Д от Брайана Мэя / Brian May's Brief History of 3D [2011г, 1080p, HDTVrip, Anamorph SideBySide]

Рейтинг 3D:
1 голосов
9.0
Рейтинг фильма:
1 голосов
9.0
 
Вы должны быть авторизированы,
чтобы ставить оценки


Краткая история 3Д от Брайана Мэя / Brian May's Brief History of 3D

Год выпуска: 2011
Страна: Великобритания
Жанр: Документальный
Продолжительность: 00:44:49
Перевод: Отсутствует
Язык: Английский
Ведущий: Brian May
Описание: "Брайан Мэй (гитарист Queen) исследует историю 3Д, с первых дней стереоскопической фотографии до самых передовых камер, использовавшихся Джеймсом Кэмероном при съёмках Аватара."
Естественно, фоном идёт музыка Куинов! :)
Доп. информация: Захват со Sky 3D TV
Обращаю внимание - перевод отсутствует, а в фильме много интервью!
Но, по моему мнению, некоторым, даже не понимающим английского, всё равно будет интересно посмотреть на эту 3д технику...
Формат 3d: Anamorph SideBySide
Порядок ракурсов: Параллельная пара
Качество: HDTVrip
Контейнер: MKV
Видео: AVC / 1920х1080p / 25.000 fps / 3 981 Kbps
Аудио: AC3 / 5.1 ch / 384 Kbps / 48 KHz

MediaInfo

General
Unique ID : 205746465734670310140211937825916582122 (0x9AC953F349A11B37AC7F222E5AA9F8EA)
Complete name : F:\Downloads\Brian May's Brief History of 3D.mkv
Format : Matroska
File size : 1.37 GiB
Duration : 44mn 49s
Overall bit rate : 4 367 Kbps
Encoded date : UTC 2011-06-30 14:01:25
Writing application : mkvmerge v4.7.0 ('Just Like You Imagined') built on Apr 21 2011 01:13:14
Writing library : libebml v1.2.0 + libmatroska v1.1.0
Video
ID : 1
Format : AVC
Format/Info : Advanced Video Codec
Format profile : High@L4.0
Format settings, CABAC : Yes
Format settings, ReFrames : 4 frames
Codec ID : V_MPEG4/ISO/AVC
Duration : 44mn 49s
Bit rate : 3 981 Kbps
Width : 1 920 pixels
Height : 1 080 pixels
Display aspect ratio : 16:9
Frame rate : 25.000 fps
Color space : YUV
Chroma subsampling : 4:2:0
Bit depth : 8 bits
Scan type : Progressive
Bits/(Pixel*Frame) : 0.077
Stream size : 1.22 GiB (89%)
Writing library : x264 core 115 r1995 c1e60b9
Encoding settings : cabac=1 / ref=3 / deblock=1:0:0 / analyse=0x3:0x113 / me=hex / subme=7 / psy=1 / psy_rd=1.00:0.00 / mixed_ref=1 / me_range=16 / chroma_me=1 / trellis=1 / 8x8dct=1 / cqm=0 / deadzone=21,11 / fast_pskip=1 / chroma_qp_offset=-2 / threads=3 / sliced_threads=0 / nr=0 / decimate=1 / interlaced=0 / bluray_compat=0 / constrained_intra=0 / bframes=3 / b_pyramid=2 / b_adapt=1 / b_bias=0 / direct=1 / weightb=1 / open_gop=0 / weightp=2 / keyint=250 / keyint_min=25 / scenecut=40 / intra_refresh=0 / rc_lookahead=40 / rc=2pass / mbtree=1 / bitrate=3981 / ratetol=1.0 / qcomp=0.60 / qpmin=0 / qpmax=69 / qpstep=4 / cplxblur=20.0 / qblur=0.5 / ip_ratio=1.40 / aq=1:1.00
Audio
ID : 2
Format : AC-3
Format/Info : Audio Coding 3
Mode extension : CM (complete main)
Codec ID : A_AC3
Duration : 44mn 49s
Bit rate mode : Constant
Bit rate : 384 Kbps
Channel(s) : 6 channels
Channel positions : Front: L C R, Side: L R, LFE
Sampling rate : 48.0 KHz
Bit depth : 16 bits
Compression mode : Lossy
Delay relative to video : 96ms
Stream size : 123 MiB (9%)
Language : English

Скриншоты

Благодарности релизеру (3)

Торрент:

Статус:

Размер:

Зарегистрирован   [ 2011-07-07 00:30 ]

проверено

1.37 GB

 
 Мнение о фильме (2)





Конечно, назвать это фильм шедевром нельзя, но как один из вариантов вполне приличного однобокого изложения истории стереоскопического кинематографа - это вполне приличный фильм.
После просмотра фильма еще раз понимаешь почему иностранный зритель с восхищением воспринимает наши стереоскопические фильмы и с удивлением узнает, что в СССР стереокино было уже в конце 30-х годов прошлого века, да еще без очков.
В любом случае, почти каждый фильм по истории стереоскопического кинематографа интересен уже тем, что их создатели выискивают что-то новое для видеоряда из закромов коллекционеров или запасников музеев.
Просмотр не вызвал зрительного переутомления.
Практически все интервью сняты с нулевым параллаксом на объекте первого плана и не значительным положительным параллаксом фона. Последнее несколько раздражало - не хватало глубины. Что касается фрагментов из фильмов и старых стереопар, то как говорится - все претензии к их создателям.
В любом случае мне фильм смотреть было интересно.
 

Я был на его мастерклассе об истории стереокино на ОМКФ. Немного походило на лекцию - более 3-х часов!
Но было интересно. Я с большим удивлением, впервые увидел фильмы Мельеса в стерео(1902г) !
Также интересно было посмотреть кадры "Робинзона Крузо" и "Концерта", цветное стерео из Германии 30-х.
Кстати, Мэй выразил благодарность своим друзьям из Москвы и лично Майорову! ;)