Торренты   
 
 


Микромиры / MicroWorlds [2010г, 720p, HDTV, Anamorph SideBySide]

Рейтинг 3D:
Пока никто не голосовал
Рейтинг фильма:
Пока никто не голосовал
 
Вы должны быть авторизированы,
чтобы ставить оценки


Микромиры / MicroWorlds
Год выпуска: 2010
Страна: Великобритания
Жанр: Документальный, видовой
Продолжительность: 00:26:40
Перевод: Отсутствует (не обязателен)
Язык: Английский
Описание: Этот фильм крупным планом показывает нам невидимую сторону жизни вокруг нас - дождевых червей, божьх коровок, бабочек, улиток.
Микромир остаётся столь же диковинным для нас, сколь и подводный, поскольку мы этого не видели в реальной жизни, тем более в объёме!
Доп. информация: Интересный фильм, 3д комфортное.
Захват с Virgin Media TV.
Проверено на ТВ Samsung C7000 (про другие ТВ ничего сказать не могу).
Формат 3d: Anamorph SideBySide
Порядок ракурсов: Параллельная пара
Качество: HDTV
Контейнер: AVI
Видео: MPEG-4 Visual / 1280х720p / 50.000 fps / 8 087 Mbps
Аудио: PCM / 2 ch / 1536 Kbps / 48 KHz

MediaInfo

General
Complete name : F:\Downloads\Microworlds 3D.avi
Format : AVI
Format/Info : Audio Video Interleave
File size : 1.80 GiB
Duration : 26mn 40s
Overall bit rate : 9 642 Kbps
Writing application : VirtualDubMod 1.5.10.3 | www.virtualdub-fr.org || (build 2550/release)
Writing library : VirtualDubMod build 2550/release
Video
ID : 0
Format : MPEG-4 Visual
Format profile : Advanced Simple@L5
Format settings, BVOP : 2
Format settings, QPel : No
Format settings, GMC : No warppoints
Format settings, Matrix : Default (H.263)
Muxing mode : Packed bitstream
Codec ID : XVID
Codec ID/Hint : XviD
Duration : 26mn 40s
Bit rate : 8 087 Kbps
Width : 1 280 pixels
Height : 720 pixels
Display aspect ratio : 16:9
Frame rate : 50.000 fps
Color space : YUV
Chroma subsampling : 4:2:0
Bit depth : 8 bits
Scan type : Progressive
Compression mode : Lossy
Bits/(Pixel*Frame) : 0.175
Stream size : 1.51 GiB (84%)
Writing library : XviD 63
Audio
ID : 1
Format : PCM
Format settings, Endianness : Little
Format settings, Sign : Signed
Codec ID : 1
Codec ID/Hint : Microsoft
Duration : 26mn 40s
Bit rate mode : Constant
Bit rate : 1 536 Kbps
Channel(s) : 2 channels
Sampling rate : 48.0 KHz
Bit depth : 16 bits
Stream size : 293 MiB (16%)
Interleave, duration : 20 ms (1.00 video frame)
Interleave, preload duration : 500 ms

Скриншоты

Благодарности релизеру (9)

Торрент:

Статус:

Размер:

Зарегистрирован   [ 2011-07-30 21:37 ]

проверено

1.8 GB