Торренты   
 
 


Экстремальная природа летучих мышей / The Extreme Nature of Bats [720p, HDTV, Anamorph SideBySide]

Рейтинг 3D:
Пока никто не голосовал
Рейтинг фильма:
Пока никто не голосовал
 
Вы должны быть авторизированы,
чтобы ставить оценки


Экстремальная природа летучих мышей / The Extreme Nature of Bats

Страна: Великобритания
Жанр: Документальный
Продолжительность: 00:22:39
Перевод: Отсутствует
Язык: Английский
Описание: В фильме показана жизнь летучих мышей-вампиров.
Доп. информация: Захват с Virgin Media TV.
Проверено на встроенном плейере ТВ Samsung C7000.
Формат 3d: Anamorph SideBySide
Порядок ракурсов: Параллельная пара
Качество: HDTV
Контейнер: AVI
Видео: MPEG-4 Visual / 1280х720p / 50.000 fps / 5 652 Kbps
Аудио: PCM / 2.0 ch / 1 536 Kbps / 48 KHz

MediaInfo

General
Complete name : F:\Downloads\The Extreme Nature of Bats 3D.avi
Format : AVI
Format/Info : Audio Video Interleave
File size : 1.14 GiB
Duration : 22mn 39s
Overall bit rate : 7 208 Kbps
Writing application : VirtualDubMod 1.5.10.3 | www.virtualdub-fr.org || (build 2550/release)
Writing library : VirtualDubMod build 2550/release
Video
ID : 0
Format : MPEG-4 Visual
Format profile : Advanced Simple@L5
Format settings, BVOP : 2
Format settings, QPel : No
Format settings, GMC : No warppoints
Format settings, Matrix : Default (H.263)
Muxing mode : Packed bitstream
Codec ID : DX50
Codec ID/Hint : DivX 5
Duration : 22mn 39s
Bit rate : 5 652 Kbps
Width : 1 280 pixels
Height : 720 pixels
Display aspect ratio : 16:9
Frame rate : 50.000 fps
Color space : YUV
Chroma subsampling : 4:2:0
Bit depth : 8 bits
Scan type : Progressive
Compression mode : Lossy
Bits/(Pixel*Frame) : 0.123
Stream size : 916 MiB (78%)
Writing library : XviD 1.2.1 (UTC 2008-12-04)
Audio
ID : 1
Format : PCM
Format settings, Endianness : Little
Format settings, Sign : Signed
Codec ID : 1
Codec ID/Hint : Microsoft
Duration : 22mn 39s
Bit rate mode : Constant
Bit rate : 1 536 Kbps
Channel(s) : 2 channels
Sampling rate : 48.0 KHz
Bit depth : 16 bits
Stream size : 249 MiB (21%)
Interleave, duration : 20 ms (1.00 video frame)
Interleave, preload duration : 500 ms

Скриншоты

Благодарности релизеру (2)

Торрент:

Статус:

Размер:

Зарегистрирован   [ 2011-07-08 21:57 ]

проверено

1.14 GB