Торренты   
 
 


Гибрид / Super Hybrid [2010г, 1080p, BDrip, Anamorph OverUnder]

Рейтинг 3D:
8 голосов
5.2
Рейтинг фильма:
7 голосов
5.0
 
Вы должны быть авторизированы,
чтобы ставить оценки


Гибрид / Super Hybrid
Год выпуска: 2010
Страна: США, Германия
Жанр: Ужасы, Триллер
Продолжительность: 01:34:35
Перевод: Любительский закадровый двухголосый
Режиссер: Эрик Валетт / Eric Valette
В ролях: Шеннон Бекнер, Одед Фер, Райан Кеннеди, Мелани Папалиа, Эдриан Дорваль, Дункан Фишер, Джош Стрейт, Kent Wolkowski, Тим МакГрат...
Описание: Тильда работает автомехаником в полицейском гараже. Жизнь складывается не так, как ей бы хотелось: бойфренд-бездельник живёт за её счёт, босс ни во что её не ставит и вечно третирует. Тильда собирается увольняться, но именно в этот самый день в гараж привозят автомобиль неопределённой модели. Пытаясь выяснить, что же это за агрегат, Тильда и её коллеги-автомеханики натыкаются на страшную правду: автомобиль… живой! И очень жадный до человеческой плоти…
Доп. информация: Примечание: Это немецкое пост-продакшн-преобразование, но не авто-конверт, как обычно было!
"trixter.de: Мы недавно закончили конвертацию нашего первого международного стереоскопического проекта - HYBRID"
Перевод, судя по всему, т.н. "сладкой парочки" от Электрички! Лучшего нет!
3д, судя по отрывкам, в порядке.
Формат 3d: Anamorph OverUnder
Качество: BDrip
Контейнер: MKV
Видео: AVC / 1920х1080p / 23,976 fps / 5 892 Kbps
Аудио#1: Русский / AC3 / 5.1 ch / 448 Kbps / 48 KHz
Аудио#2: Английский / AC3 / 5.1 ch / 640 kbps / 48 KHz

MediaInfo

General
Unique ID : 246654290511551556681892220358177518276 (0xB98FE36E3BC1A893BD8F38A9320EF2C4)
Complete name : F:\Downloads\Hybrid3D.halfOU.AC3.ash61.mkv
Format : Matroska
File size : 4.71 GiB
Duration : 1h 34mn
Overall bit rate : 7 122 Kbps
Encoded date : UTC 2011-07-10 11:37:07
Writing application : mkvmerge v3.4.0 ('Rapunzel') сборка от May 15 2010 09:38:20
Writing library : libebml v0.8.0 + libmatroska v0.9.0
Video
ID : 1
Format : AVC
Format/Info : Advanced Video Codec
Format profile : High@L4.1
Format settings, CABAC : Yes
Format settings, ReFrames : 4 frames
Format settings, GOP : M=1, N=16
Codec ID : V_MPEG4/ISO/AVC
Duration : 1h 34mn
Bit rate : 5 892 Kbps
Width : 1 920 pixels
Height : 1 080 pixels
Display aspect ratio : 16:9
Frame rate : 23.976 fps
Color space : YUV
Chroma subsampling : 4:2:0
Bit depth : 8 bits
Scan type : Progressive
Bits/(Pixel*Frame) : 0.119
Stream size : 3.89 GiB (83%)
Title : Rip by Ash61
Writing library : x264 core 113 r1884 7313bb5
Encoding settings : cabac=1 / ref=4 / deblock=1:-1:-1 / analyse=0x3:0x113 / me=umh / subme=10 / psy=1 / psy_rd=1.00:0.15 / mixed_ref=1 / me_range=16 / chroma_me=1 / trellis=2 / 8x8dct=1 / cqm=0 / deadzone=21,11 / fast_pskip=1 / chroma_qp_offset=-3 / threads=3 / sliced_threads=0 / nr=0 / decimate=1 / interlaced=0 / constrained_intra=0 / bframes=6 / b_pyramid=2 / b_adapt=2 / b_bias=0 / direct=3 / weightb=1 / open_gop=0 / weightp=2 / keyint=250 / keyint_min=23 / scenecut=40 / intra_refresh=0 / rc_lookahead=60 / rc=crf / mbtree=1 / crf=18.0 / qcomp=0.60 / qpmin=0 / qpmax=51 / qpstep=4 / ip_ratio=1.40 / aq=1:1.00
Audio #1
ID : 2
Format : AC-3
Format/Info : Audio Coding 3
Mode extension : CM (complete main)
Codec ID : A_AC3
Duration : 1h 34mn
Bit rate mode : Constant
Bit rate : 448 Kbps
Channel(s) : 6 channels
Channel positions : Front: L C R, Side: L R, LFE
Sampling rate : 48.0 KHz
Bit depth : 16 bits
Compression mode : Lossy
Delay relative to video : 200ms
Stream size : 303 MiB (6%)
Language : Russian
Audio #2
ID : 3
Format : AC-3
Format/Info : Audio Coding 3
Mode extension : CM (complete main)
Codec ID : A_AC3
Duration : 1h 34mn
Bit rate mode : Constant
Bit rate : 640 Kbps
Channel(s) : 6 channels
Channel positions : Front: L C R, Side: L R, LFE
Sampling rate : 48.0 KHz
Bit depth : 16 bits
Compression mode : Lossy
Stream size : 433 MiB (9%)
Language : English
Menu
00:00:00.000 : :01
00:07:45.465 : :02
00:14:03.676 : :03
00:23:48.677 : :04
00:33:47.567 : :05
00:41:37.036 : :06
00:48:27.154 : :07
00:59:44.498 : :08
01:08:39.365 : :09
01:17:18.884 : :10
01:29:33.243 : :11

Скриншоты

Лог кодирования

Благодарности релизеру (13)

Торрент:

Статус:

Размер:

Зарегистрирован   [ 2011-08-01 11:55 ]

проверено

4.71 GB