Торренты   
 
 


Рио 3Д / Rio 3D (Карлос Салдана) [2011 г., 1080p, BDRip, Anamorph SideBySide]

Рио 3Д / Rio 3D
Год выпуска: 2011
Страна: США
Жанр: мультфильм, мюзикл, комедия, приключения, семейный
Продолжительность: 01:35:57
Перевод: Профессиональный (полное дублирование)
Режиссер: Карлос Салдана
В ролях: Павел Деревянко, Татьяна Шилина, Илья Колесников, Аркадий Джем, Лиза Мартиросова
Описание: Попугай-зануда оставляет свою уютную сытую жизнь в клетке и из Миннесоты отправляется в Рио-де-Жанейро, город грез всех и каждого. Неминуемые встречи, препятствия, опасности и любовь к последней представительнице его рода заставляют нашего героя по-другому посмотреть на мир и из скучного домоседа превратиться в милого симпатягу, узнавшего цену дружбе и смелости.
Формат 3d: Anamorph SideBySide
Качество видео: BDrip
Контейнер: MKV
Видео кодек: x264
Аудио кодек: AC3, DTS
Видео: MPEG4 Video (H264) 1920x1080p 23.98fps 13500 kbps
Аудио 1: Russian / Dolby AC3 48000Hz 5.1ch 384 kbps
Аудио 2: English / DTS 48000Hz 5.1ch 1510 Kbps

MediaInfo

General
Unique ID : 207676600866590068564744050512525321863 (0x9C3D0EF5A53C9C6897ADCD6B86D4E687)
Complete name : RIO_3D_H-SBS_EX-3DBLURAYISOTEAM_1080p_RUS_AC3_ENG_DTS-3D4U.mkv
Format : Matroska
File size : 10.6 GiB
Duration : 1h 35mn
Overall bit rate : 15.8 Mbps
Movie name : Rio 3D - 3D4U
Encoded date : UTC 2011-07-11 17:15:56
Writing application : mkvmerge v4.4.0 ('Die Wiederkehr') built on Oct 31 2010 21:52:48
Writing library : libebml v1.0.0 + libmatroska v1.0.0
Video
ID : 1
Format : AVC
Format/Info : Advanced Video Codec
Format profile : High@L4.1
Format settings, CABAC : Yes
Format settings, ReFrames : 2 frames
Format settings, GOP : M=3, N=15
Codec ID : V_MPEG4/ISO/AVC
Duration : 1h 35mn
Bit rate mode : Variable
Bit rate : 13.5 Mbps
Maximum bit rate : 17.2 Mbps
Width : 1 920 pixels
Height : 1 080 pixels
Display aspect ratio : 16:9
Frame rate : 23.976 fps
Color space : YUV
Chroma subsampling : 4:2:0
Bit depth : 8 bits
Scan type : Progressive
Bits/(Pixel*Frame) : 0.272
Stream size : 9.07 GiB (86%)
Language : English
Audio #1
ID : 2
Format : AC-3
Format/Info : Audio Coding 3
Mode extension : CM (complete main)
Codec ID : A_AC3
Duration : 1h 35mn
Bit rate mode : Constant
Bit rate : 384 Kbps
Channel(s) : 6 channels
Channel positions : Front: L C R, Side: L R, LFE
Sampling rate : 48.0 KHz
Bit depth : 16 bits
Compression mode : Lossy
Stream size : 264 MiB (2%)
Language : Russian
Audio #2
ID : 3
Format : DTS
Format/Info : Digital Theater Systems
Format profile : MA / Core
Codec ID : A_DTS
Duration : 1h 35mn
Bit rate mode : Variable
Bit rate : 1 561 Kbps / 1 510 Kbps
Channel(s) : 6 channels
Channel positions : Front: L C R, Side: L R, LFE
Sampling rate : 48.0 KHz
Bit depth : 24 bits
Compression mode : Lossless / Lossy
Language : English

Скриншоты


Комментарии:

1, 2, 3  След.






СПАСИБО , ПОРАДОВАЛ !!!!
 

ура наконец то
 

спасибо!
 

Вот это уровень!!! Будем брать. Ждать нету больше сил. Спасибище!!! Как качество 3D?
 

А полная пара будет?
 

Спасибо, а то давно новинок не было.
 

Ну просто КРАСАВА !!!! СПАСИБО!!!!
 

а качается --уснуть можно, 120 кбит загрузка, 1 мбит отдача....
 

Жаль что рип фабовский.. Хотя формат все равно не мой...
И все-же за релиз СПАСИБО.
 

как эффекты стерео?
 

Если судить по тому что было в кинотеатрах то нормально!
 

Сначала звук тормозит, но потом разгоняется.Эффекты просто шикарны, хотя очень широкие черные полосы...
 

Спс качаю. А если вырезать англ. дорожку сколько весить будет?
 

Спасибище БОЛЬШОЕ!!!!
 

Спасибо. DНТ работает, а вот трекер выдает ошибку: Please disable SKRAPE!
 

не качается
 

как не качается когда качается?
 

serglev, трекер же конкретно говорит - отключите Scrape-запросы! Вот и отключите их в торрент-клиенте. Я уже давно это сделал, и даже писал об этом на этом трекере.
 

СПАСИБО !!!
 

Ребят, будьте добры, выложите пожалуйста в 720р:)..
 

Страница 1 из 3

1, 2, 3  След.