Торренты   
 
 

 

Рио 3D / Rio 3D [2011, Мультфильм, BDrip, 1080p, Anaglyph, red'cyan (Dubois)]

Рейтинг 3D:
1 голосов
10
Рейтинг фильма:
1 голосов
10
 
Вы должны быть авторизированы,
чтобы ставить оценки


Рио 3D/ Rio 3D
Год выпуска: 2011
Страна: США
Жанр: Мультфильм, Мюзикл, Комедия, Приключения, Семейный
Продолжительность: 01:35:55
Перевод: Профессиональный (дублированный)
Режиссер на русском: Карлос Салдана
Режиссер на английском: Carlos Saldanha
Роли озвучивали:
Голубчик (Blu) - Павел Деревянко (Jesse Eisenberg)
Жемчужинка (Jewel) - Татьяна Шилина (Anne Hathaway)
Нико (Nico) - Илья Колесников (Jamie Foxx)
Педро (Pedro) - Аркадий Джем (Will i Am (The Black Eyed Peas))
Марсель (Marcel) - Александр Груздев (Carlos Ponce)
Рафаэль (Rafael) - Никита Прозоровский (George Lopez)
Найджел (Nigel) - Олег Куценко (Jemaine Clement)
Описание: Попугай-зануда оставляет свою уютную сытую жизнь в клетке и из Миннесоты отправляется в Рио-де-Жанейро, город грез всех и каждого. Неминуемые встречи, препятствия, опасности и любовь к последней представительнице его рода заставляют нашего героя по-другому посмотреть на мир и из скучного домоседа превратиться в милого симпатягу, узнавшего цену дружбе и смелости.
Качество: BDrip
Контейнер: MKV
Формат 3d: Anaglyph (Дюбуа)
Цвета очков:

Скриншоты

MediaInfo

General
Format : Matroska
File size : 4.48 GiB
Duration : 1h 35mn
Overall bit rate : 6 692 Kbps
Encoded date : UTC 2011-07-14 10:25:14
Writing application : mkvmerge v4.4.0 ('Die Wiederkehr') сборка от Oct 31 2010 21:52:48
Writing library : libebml v1.0.0 + libmatroska v1.0.0
Video
ID : 1
Format : AVC
Format/Info : Advanced Video Codec
Format profile : High@L4.0
Format settings, CABAC : Yes
Format settings, ReFrames : 4 frames
Codec ID : V_MPEG4/ISO/AVC
Duration : 1h 35mn
Bit rate : 6 175 Kbps
Width : 1 920 pixels
Height : 1 080 pixels
Display aspect ratio : 16:9
Frame rate : 23.976 fps
Color space : YUV
Chroma subsampling : 4:2:0
Bit depth : 8 bits
Scan type : Progressive
Bits/(Pixel*Frame) : 0.124
Stream size : 4.14 GiB (92%)
Title : Anaglyph Dubois by Boss-Master
Writing library : x264 core 115 r1995 c1e60b9
Encoding settings : cabac=1 / ref=4 / deblock=1:-2:-2 / analyse=0x3:0x113 / me=umh / subme=7 / psy=1 / psy_rd=1.00:0.15 / mixed_ref=1 / me_range=16 / chroma_me=1 / trellis=2 / 8x8dct=1 / cqm=0 / deadzone=21,11 / fast_pskip=1 / chroma_qp_offset=-3 / threads=6 / sliced_threads=0 / nr=0 / decimate=1 / interlaced=0 / bluray_compat=0 / constrained_intra=0 / bframes=6 / b_pyramid=0 / b_adapt=2 / b_bias=0 / direct=3 / weightb=1 / open_gop=0 / weightp=2 / keyint=250 / keyint_min=23 / scenecut=40 / intra_refresh=0 / rc_lookahead=40 / rc=crf / mbtree=1 / crf=18.0 / qcomp=0.60 / qpmin=10 / qpmax=69 / qpstep=4 / ip_ratio=1.40 / aq=1:1.00
Audio
ID : 2
Format : AC-3
Format/Info : Audio Coding 3
Mode extension : CM (complete main)
Codec ID : A_AC3
Duration : 1h 35mn
Bit rate mode : Constant
Bit rate : 384 Kbps
Channel(s) : 6 channels
Channel positions : Front: L C R, Side: L R, LFE
Sampling rate : 48.0 KHz
Bit depth : 16 bits
Compression mode : Lossy
Delay relative to video : 28ms
Stream size : 263 MiB (6%)
Благодарности релизеру (0)

Торрент:

Статус:

Размер:

Зарегистрирован   [ 2011-07-15 09:23 ]

проверено

4.48 GB