Торренты   
 
 

 

Рио / Rio (Карлос Салдана) [2011, мультфильм, комедия, семейный, BDrip 1080р, Full OverUnder]

Рейтинг 3D:
3 голосов
8.3
Рейтинг фильма:
4 голосов
9.0
 
Вы должны быть авторизированы,
чтобы ставить оценки


Рио / Rio
Год выпуска: 2011
Страна: США
Жанр: Мультфильм, Мюзикл, Комедия, Приключения, Семейный
Продолжительность: 01:35:56
Перевод: Профессиональный (полное дублирование)
Субтитры: форсированные русские + полные русские, английские, французские, испанские, португальские, голландские, шведские (за сабы спасибо Kinokritik'у!)
Режиссер: Карлос Салдана / Carlos Saldanha
Роли озвучивали:
Голубчик (Blu) - Павел Деревянко (Jesse Eisenberg)
Жемчужинка (Jewel) - Татьяна Шилина (Anne Hathaway)
Нико (Nico) - Илья Колесников (Jamie Foxx)
Педро (Pedro) - Аркадий Джем (Will i Am (The Black Eyed Peas))
Марсель (Marcel) - Александр Груздев (Carlos Ponce)
Рафаэль (Rafael) - Никита Прозоровский (George Lopez)
Найджел (Nigel) - Олег Куценко (Jemaine Clement)
.....
Описание: Попугай-зануда оставляет свою уютную сытую жизнь в клетке и из Миннесоты отправляется в Рио-де-Жанейро, город грез всех и каждого. Неминуемые встречи, препятствия, опасности и любовь к последней представительнице его рода заставляют нашего героя по-другому посмотреть на мир и из скучного домоседа превратиться в милого симпатягу, узнавшего цену дружбе и смелости. Релиз:
Формат 3d: OverUnder
Качество: BDrip
Контейнер: MKV
Видео: AVC / 1920х1600p / 23,976 fps / 13.3 Mbps
Аудио#1: Русский / AC3 / 5.1 ch / 640 Kbps / 48 KHz
Аудио#2: Украинский / AC3 / 5.1 ch / 384 Kbps / 48 KHz
Аудио#3: Английский / AC3 / 5.1 ch / 640 kbps / 48 KHz
Субтитры: srt (внешние) (по умолчанию включены русские форсированные)

MediaInfo

General
Unique ID : 232247771767915273859761579410720719574 (0xAEB94B378EF3EC649EBF3ABBC46E82D6)
Complete name : F:\Downloads\Rio3D.OU.AC3.3D-RuGroup\Rio3D.OU.AC3.3D-RuGroup.mkv
Format : Matroska
File size : 10.3 GiB
Duration : 1h 35mn
Overall bit rate : 15.3 Mbps
Encoded date : UTC 2011-07-15 21:20:09
Writing application : mkvmerge v3.4.0 ('Rapunzel') сборка от May 15 2010 09:38:20
Writing library : libebml v0.8.0 + libmatroska v0.9.0
Video
ID : 1
Format : AVC
Format/Info : Advanced Video Codec
Format profile : High@L5.0
Format settings, CABAC : Yes
Format settings, ReFrames : 5 frames
Codec ID : V_MPEG4/ISO/AVC
Duration : 1h 35mn
Bit rate : 13.3 Mbps
Width : 1 920 pixels
Height : 1 600 pixels
Display aspect ratio : 1.200
Frame rate : 23.976 fps
Original frame rate : 25.000 fps
Color space : YUV
Chroma subsampling : 4:2:0
Bit depth : 8 bits
Scan type : Progressive
Bits/(Pixel*Frame) : 0.181
Stream size : 8.94 GiB (87%)
Title : Rip by Ash61
Writing library : x264 core 113 r1884 7313bb5
Encoding settings : cabac=1 / ref=5 / deblock=1:-1:-1 / analyse=0x3:0x113 / me=umh / subme=9 / psy=1 / psy_rd=1.00:0.15 / mixed_ref=1 / me_range=16 / chroma_me=1 / trellis=2 / 8x8dct=1 / cqm=0 / deadzone=21,11 / fast_pskip=1 / chroma_qp_offset=-3 / threads=3 / sliced_threads=0 / nr=0 / decimate=1 / interlaced=0 / constrained_intra=0 / bframes=6 / b_pyramid=2 / b_adapt=2 / b_bias=0 / direct=3 / weightb=1 / open_gop=0 / weightp=2 / keyint=250 / keyint_min=25 / scenecut=40 / intra_refresh=0 / rc_lookahead=40 / rc=crf / mbtree=1 / crf=17.0 / qcomp=0.60 / qpmin=0 / qpmax=51 / qpstep=4 / ip_ratio=1.40 / aq=1:1.00
Audio #1
ID : 2
Format : AC-3
Format/Info : Audio Coding 3
Mode extension : CM (complete main)
Codec ID : A_AC3
Duration : 1h 35mn
Bit rate mode : Constant
Bit rate : 640 Kbps
Channel(s) : 6 channels
Channel positions : Front: L C R, Side: L R, LFE
Sampling rate : 48.0 KHz
Bit depth : 16 bits
Compression mode : Lossy
Stream size : 439 MiB (4%)
Language : Russian
Audio #2
ID : 3
Format : AC-3
Format/Info : Audio Coding 3
Mode extension : CM (complete main)
Codec ID : A_AC3
Duration : 1h 35mn
Bit rate mode : Constant
Bit rate : 384 Kbps
Channel(s) : 6 channels
Channel positions : Front: L C R, Side: L R, LFE
Sampling rate : 48.0 KHz
Bit depth : 16 bits
Compression mode : Lossy
Stream size : 264 MiB (3%)
Language : Ukrainian
Audio #3
ID : 4
Format : AC-3
Format/Info : Audio Coding 3
Mode extension : CM (complete main)
Codec ID : A_AC3
Duration : 1h 35mn
Bit rate mode : Constant
Bit rate : 640 Kbps
Channel(s) : 6 channels
Channel positions : Front: L C R, Side: L R, LFE
Sampling rate : 48.0 KHz
Bit depth : 16 bits
Compression mode : Lossy
Stream size : 439 MiB (4%)
Language : English
Menu
00:00:00.000 : :01
00:06:34.853 : :02
00:12:16.569 : :03
00:16:13.139 : :04
00:21:29.497 : :05
00:23:46.008 : :06
00:28:57.194 : :07
00:34:11.841 : :08
00:36:53.461 : :09
00:39:27.615 : :10
00:43:17.762 : :11
00:45:48.454 : :12
00:50:03.083 : :13
00:52:58.217 : :14
00:57:37.287 : :15
01:00:49.646 : :16
01:03:39.691 : :17
01:07:57.365 : :18
01:11:47.512 : :19
01:15:32.027 : :20
01:19:40.943 : :21
01:21:19.333 : :22
01:23:43.477 : :23
01:26:38.902 : :24
Благодарности релизеру (8)

Торрент:

Статус:

Размер:

Зарегистрирован   [ 2011-07-16 17:52 ]

проверено

10.26 GB