Торренты   
 
 

 

Лунный свет 3D / Lichtmond 3D (Giorgio Koppehele, Martin Koppehele) [2010 г, BDRip 720p, OverUnder]

Рейтинг 3D:
95 голосов
8.5
Рейтинг фильма:
94 голосов
7.7
 
Вы должны быть авторизированы,
чтобы ставить оценки


-Лунный свет 3D
Lichtmond 3D
- Год выпуска: 2010
Страна: Германия | Avenue Music (Alive)
Жанр: музыка, релакс
Продолжительность: 00:48:47
Перевод: отсутствует
Русские субтитры: нет-Исполнители:
Giorgio Koppehele, Martin Koppehele
Описание:
Братья Джорджио и Мартин Коппехели (Avenue Music), авторы пользующейся заслуженной популярностью среди любителей многоканальной музыки, и не только, серии Ambra, представляют новый проект - "Lichtmond" ("Лунный свет"). Визуальная часть представляет собой анимацию испанского художника-мультипликатора Diego M. Bonati, студия Imago-D - фантастические миры, созданные специально для "Lichtmond".-Релиз группы:

На встроенном плеере работать не будет.-Качество: 3D BDrip 720p
Контейнер: MKV
Формат 3D: OverUnder / Вертикальная стереопара
Видео кодек: x264
Аудио кодек: AC3
Видео: MPEG4 Video (H264) 1280x1440 23.976 кадр/сек 11,4 Мбит/сек
Аудио: AC3, 6 каналов, 640 Кбит/сек, 48,0 КГц

СКРИНШОТЫ



MI

Общее
Уникальный идентификатор : 212353308957213873240113894058118854854 (0x9FC1C2787D9A829B846DE7813693B8C6)
Полное имя : L:\Lichtmond.3D.2010.BD3DRip.720p.OU.x264.AC3.3D-RuGroup.mkv
Формат : Matroska
Размер файла : 4,20 Гбайт
Продолжительность : 48 м.
Общий поток : 12,3 Мбит/сек
Дата кодирования : UTC 2011-07-16 19:01:54
Программа кодирования : mkvmerge v3.4.0 ('Rapunzel') сборка от May 15 2010 09:38:20
Библиотека кодирования : libebml v0.8.0 + libmatroska v0.9.0
Видео
Идентификатор : 1
Формат : AVC
Формат/Информация : Advanced Video Codec
Профиль формата : High@L5.0
Параметр CABAC формата : Да
Параметр ReFrames формата : 5 кадров
Идентификатор кодека : V_MPEG4/ISO/AVC
Продолжительность : 48 м.
Битрейт : 11,4 Мбит/сек
Ширина : 1280 пикс.
Высота : 1440 пикс.
Соотношение сторон : 0,889
Частота кадров : 23,976 кадр/сек
Цветовое пространство : YUV
Подвыборка цветности : 4:2:0
Битовая глубина : 8 бит
Тип развёртки : Прогрессивная
Бит/(Пиксели*Кадры) : 0.259
Размер потока : 3,89 Гбайт (93%)
Заголовок : Lichtmond 3D-RuGroup
Библиотека кодирования : x264 core 115 r1947 b5a8ad7
Настройки программы : cabac=1 / ref=5 / deblock=1:-3:-3 / analyse=0x3:0x133 / me=umh / subme=10 / psy=1 / psy_rd=1.00:0.15 / mixed_ref=1 / me_range=48 / chroma_me=1 / trellis=2 / 8x8dct=1 / cqm=0 / deadzone=21,11 / fast_pskip=0 / chroma_qp_offset=-3 / threads=3 / sliced_threads=0 / nr=0 / decimate=1 / interlaced=0 / bluray_compat=0 / constrained_intra=0 / bframes=6 / b_pyramid=2 / b_adapt=2 / b_bias=0 / direct=3 / weightb=1 / open_gop=0 / weightp=2 / keyint=250 / keyint_min=23 / scenecut=40 / intra_refresh=0 / rc_lookahead=60 / rc=crf / mbtree=1 / crf=18.0 / qcomp=0.70 / qpmin=0 / qpmax=51 / qpstep=4 / ip_ratio=1.40 / aq=1:0.70
Аудио
Идентификатор : 2
Формат : AC-3
Формат/Информация : Audio Coding 3
Расширение режима : CM (complete main)
Идентификатор кодека : A_AC3
Продолжительность : 48 м.
Вид битрейта : Постоянный
Битрейт : 640 Кбит/сек
Каналы : 6 каналов
Расположение каналов : Front: L C R, Side: L R, LFE
Частота : 48,0 КГц
Битовая глубина : 16 бит
Метод сжатия : С потерями
Размер потока : 223 Мбайт (5%)
Заголовок : Lichtmond AC3 5.1
Меню
00:00:00.000 : :Awakening
00:01:37.139 : :Early Dew
00:06:25.093 : :Sounds of Distance
00:10:50.567 : :Rays of Moonlight
00:17:00.061 : :Do you believe in Love
00:22:19.547 : :Me & You
00:28:20.198 : :Shine on me
00:34:33.655 : :Serenity
00:40:56.037 : :Save me
00:46:47.471 : :Sunset
Остальные раздачи этого фильма (3)
Благодарности релизеру (25)

Торрент:

Статус:

Размер:

Зарегистрирован   [ 2011-07-17 00:31 ]

проверено

4.2 GB

 
 Мнение о фильме (30)

Пред.  1, 2






3д хорошее, но сам фильм мне не очень понравился. Крутится одна большая сцена, которая вскоре надоедает, хочется чего-то нового, а камера все крутится и крутится. Да и графика не сказать, чтобы впечатляла. Потом, тут большой упор на музыку, и если первый трек хорош, то второй уже не понравился, т.е. впечатления сильно зависят от музыкальных предпочтений.
 

А мне всё очень понравилось, музыка, графика, вылеты.
(LG55'')
 

супер! спасибо авторам и всем раздающим. Смотрели не отрываясь от экрана, вторую часть тоже.
 

Спасибо ! прикольная вещь !
 

отлично всё замечательно
 

Супер всё очень классно большое спасибо
 

Спасибо большое! Очень понравилось! Просто супер!
 

Огромное спасибо, супер!!!
 

Не советую качество плохое и видны черные полоски.
 

3dFilmsAleksandr, разберись со своей аппаратурой прежде чем наезжать на тех, кто в этом разбирается лучше тебя!
намного лучше тебя.
 

Страница 2 из 2

Пред.  1, 2