Торренты   
 
 


Стальные двери / Iron Doors [2010г, 1080p, BDrip, Anamorph OverUnder]

Рейтинг 3D:
Пока никто не голосовал
Рейтинг фильма:
Пока никто не голосовал
 
Вы должны быть авторизированы,
чтобы ставить оценки


Стальные двери / Iron Doors
Год выпуска: 2010
Страна: Германия
Жанр: Триллер, Детектив, Фэнтези
Продолжительность: 01:20:27
Перевод: Любительский (одноголосый) (R1shpil)
Режиссер: Стивен Мануэль / Stephen Manuel
В ролях: Axel Wedekind, Rungano Nyoni
Описание: Главный герой просыпается в замкнутом хранилище, не зная как он в нем очутился. Он должен попытаться выбраться из него, прежде чем он умрет от обезвоживания.
Доп. информация: Фильм очень своеобразный, на любителя! Отзывы очень противоречивые - кому-то очень понравился, кому-то очень не понравился, а кому-то только концовка не понравилась! Решать вам!
А медалек-то на постере много нарисовано (в т.ч. и в плане 3д)! :)
Формат 3d: Anamorph OverUnder
Качество: BDrip
Контейнер: MKV
Видео: AVC / 1920х1080p / 23,976 fps / 6 459 Kbps
Аудио#1: Русский / AC3 / 5.1 ch / 640 Kbps / 48 KHz
Аудио#2: Английский / AC3 / 5.1 ch / 640 kbps / 48 KHz

MediaInfo

General
Unique ID : 230578263661717016611738532872013000684 (0xAD77C21CBE589A92AA5EAA4D15F4AFEC)
Complete name : F:\Downloads\IronDoors3D.halfOU.AC3.ash61.mkv
Format : Matroska
File size : 4.44 GiB
Duration : 1h 20mn
Overall bit rate : 7 896 Kbps
Encoded date : UTC 2011-07-17 17:20:58
Writing application : mkvmerge v3.4.0 ('Rapunzel') сборка от May 15 2010 09:38:20
Writing library : libebml v0.8.0 + libmatroska v0.9.0
Video
ID : 1
Format : AVC
Format/Info : Advanced Video Codec
Format profile : High@L4.1
Format settings, CABAC : Yes
Format settings, ReFrames : 4 frames
Codec ID : V_MPEG4/ISO/AVC
Duration : 1h 20mn
Bit rate : 6 459 Kbps
Width : 1 920 pixels
Height : 1 080 pixels
Display aspect ratio : 16:9
Frame rate : 23.976 fps
Color space : YUV
Chroma subsampling : 4:2:0
Bit depth : 8 bits
Scan type : Progressive
Bits/(Pixel*Frame) : 0.130
Stream size : 3.63 GiB (82%)
Title : Rip by Ash61
Writing library : x264 core 113 r1884 7313bb5
Encoding settings : cabac=1 / ref=4 / deblock=1:-3:-3 / analyse=0x3:0x113 / me=umh / subme=9 / psy=1 / psy_rd=1.00:0.15 / mixed_ref=1 / me_range=16 / chroma_me=1 / trellis=2 / 8x8dct=1 / cqm=0 / deadzone=21,11 / fast_pskip=1 / chroma_qp_offset=-3 / threads=3 / sliced_threads=0 / nr=0 / decimate=1 / interlaced=0 / constrained_intra=0 / bframes=6 / b_pyramid=2 / b_adapt=2 / b_bias=0 / direct=3 / weightb=1 / open_gop=0 / weightp=2 / keyint=250 / keyint_min=23 / scenecut=40 / intra_refresh=0 / rc_lookahead=60 / rc=crf / mbtree=1 / crf=18.0 / qcomp=0.60 / qpmin=1 / qpmax=51 / qpstep=4 / ip_ratio=1.40 / aq=1:1.00
Audio #1
ID : 2
Format : AC-3
Format/Info : Audio Coding 3
Mode extension : CM (complete main)
Codec ID : A_AC3
Duration : 1h 20mn
Bit rate mode : Constant
Bit rate : 640 Kbps
Channel(s) : 6 channels
Channel positions : Front: L C R, Side: L R, LFE
Sampling rate : 48.0 KHz
Bit depth : 16 bits
Compression mode : Lossy
Stream size : 368 MiB (8%)
Title : AVO - R1shpil
Language : Russian
Audio #2
ID : 3
Format : AC-3
Format/Info : Audio Coding 3
Mode extension : CM (complete main)
Codec ID : A_AC3
Duration : 1h 20mn
Bit rate mode : Constant
Bit rate : 640 Kbps
Channel(s) : 6 channels
Channel positions : Front: L C R, Side: L R, LFE
Sampling rate : 48.0 KHz
Bit depth : 16 bits
Compression mode : Lossy
Stream size : 368 MiB (8%)
Language : English
Menu
00:00:00.000 : :01
00:08:52.907 : :02
00:12:29.999 : :03
00:22:16.126 : :04
00:28:34.004 : :05
00:34:26.940 : :06
00:42:09.068 : :07
00:46:34.250 : :08
00:55:42.130 : :09
01:05:56.536 : :10
01:12:35.226 : :11
01:17:26.934 : :12

Скриншоты

Благодарности релизеру (0)

Торрент:

Статус:

Размер:

Зарегистрирован   [ 2011-07-17 22:24 ]

x закрыто

4.44 GB

 
Комментарии:

1, 2  След.






ash61
Спасибо . Посмотрим и раздачу придержим .
 

Спасибо!!!!!
 

Ну ты!!!!..Да где ж ты их берешь???... Хотя суя по скринам не айс но все равно интересно!!!
Ну и конечно спасибо за труды! :)
 

По отзывам- что то среднее между Кубом и Пилой.... Посмотрим, посмотрим.... Спасибо!!!
 

Ну ты!!!!..Да где ж ты их берешь???... Хотя суя по скринам не айс но все равно интересно!!!
Ну и конечно спасибо за труды! :)
Поддерживаю вопрос и утверждение :Э ( кстати не такая уж и плохая 2D-3D конвертация). и конечно же Спасибо ,)
 

Я по скринам вообще не увидел 3д, никакого смещения между планами. Если конвертация, то автоматическая.
 

ash61
Продолжаешь приятно удивлять!
 

Всем пожалуйста, коллеги!
У буржуев выбираю пару зёрен из сотни плевел! :)
admin, посмотрел свои скрины - действительно практически не заметно смещения. Но я смотрел отрывок 7 минутный (свой) - совершенно нормальное 3д! А уж 3д-фейков я пересмотрел достаточно, так что вряд ли я ошибся. Ну посмотрим ещё что скажут скачавшие.
 

Спасибо! Посмотрим.
 

ash61
Понятно, заценим. Действительно может быть места для скринов не очень удачные.
 

admin, сейчас пересмотрел стоп-кадры по всему фильму. Очень трудно найти места для оценки разноса - в основном однотонный и нерезкий фон. Ну а если где-то и находился более-менее приемлемый кадр, то видно, что стереобаза очень узкая. Но в то же время посмотрел отрывками на ТВ - постоянно виден нормальный объём, в правильную сторону (т.е. не увидел ни одного ляпа по карте глубины), даже лица объёмные.
Так что лучше оценивать в динамике. Ну а посчитаете фейком - удаляйте. :)
 

ash61
Не думаю, что фейк, все таки ты человек опытный. У Трона тоже узкая стереобаза была, но смотрелось очень неплохо в контексте. Я даже за серебряную медальку выступал, но было мало поддержки.
 

Посмотрел фильм, всё-таки конвертация в глаза бросается, но всё же получше, чем в "Гибреде".
Сюжет не продуман по-мелочам, например долбил столько времени стенку, а девка не слышала ничего...
 

фильм норм. но без вылетов видимо фейк ))
 

Аватар тоже без вылетов!!! :)))
 

У народа интересное представление о 3Д кино. Как будто в реальной жизни только и влетает что то в глаза....
 

ash61
А можешь кинуть инвайт на какойнить ресурс буржуйский с BD 3D?
 

AirKiller, там пока безинвайтная система. www.fs-3d.com
Правда там в основном БД в юзнете, а туда я и сам выхода не имею.
 

AirKiller
http://www.3dtorrents.org/index.php?page=torrents влегкую после регистрации растет рейтинг. можно, не грубя, воспользоваться " всем известными" методами поднятия рейтинга....
 

C 3D все в порядке, оно там присутствует.
Но вот сюжета и смысла в фильме не обнаружено :(
До пилы или тем более кубов - как до луны пехом.
 

Страница 1 из 2

1, 2  След.