Торренты   
 
 


Москва - любимый город [2011г, 1080p, Anamorph SideBySide]

Рейтинг 3D:
Пока никто не голосовал
Рейтинг фильма:
Пока никто не голосовал
 
Вы должны быть авторизированы,
чтобы ставить оценки


Москва - любимый город

Год выпуска: 2011
Страна: Россия
Жанр: Видовой
Продолжительность: 00:27:17
Описание: Новый красивый, качественный ролик от Ярослава (yar), только уже достаточно длинный. Жаль битрейт низковат.
3д в порядке.
Формат 3d: Anamorph SideBySide
Порядок ракурсов: Параллельная пара
Контейнер: AVI
Видео: XVID / 1920х1080p / 25.000 fps / 3 589 Kbps
Аудио: mp3 / 2 ch / 160 Kbps / 48 KHz

MediaInfo

General
Complete name : F:\Downloads\moscow_3d-lr.avi
Format : AVI
Format/Info : Audio Video Interleave
File size : 734 MiB
Duration : 27mn 17s
Overall bit rate : 3 759 Kbps
Writing library : VirtualDub build 32706/release
Video
ID : 0
Format : MPEG-4 Visual
Format profile : Advanced Simple@L5
Format settings, BVOP : 2
Format settings, QPel : No
Format settings, GMC : No warppoints
Format settings, Matrix : Default (H.263)
Muxing mode : Packed bitstream
Codec ID : XVID
Codec ID/Hint : XviD
Duration : 27mn 17s
Bit rate : 3 589 Kbps
Width : 1 920 pixels
Height : 1 080 pixels
Display aspect ratio : 16:9
Frame rate : 25.000 fps
Color space : YUV
Chroma subsampling : 4:2:0
Bit depth : 8 bits
Scan type : Progressive
Compression mode : Lossy
Bits/(Pixel*Frame) : 0.069
Stream size : 701 MiB (95%)
Writing library : XviD 1.2.1 (UTC 2008-12-04)
Audio
ID : 1
Format : MPEG Audio
Format version : Version 1
Format profile : Layer 3
Mode : Joint stereo
Mode extension : MS Stereo
Codec ID : 55
Codec ID/Hint : MP3
Duration : 27mn 17s
Bit rate mode : Constant
Bit rate : 160 Kbps
Channel(s) : 2 channels
Sampling rate : 48.0 KHz
Compression mode : Lossy
Stream size : 31.2 MiB (4%)
Alignment : Split accross interleaves
Interleave, duration : 40 ms (1.00 video frame)
Interleave, preload duration : 500 ms

Скриншоты

Благодарности релизеру (4)

Торрент:

Статус:

Размер:

Зарегистрирован   [ 2011-07-18 13:38 ]

проверено

734 MB