Торренты   
 
 


Дельфин: История мечтателя / El delfin: La historia de un sonador (Эдуардо Шульдт / Eduardo Schuldt) [2009 г., Anamorph SideBySide]

Дельфин: История мечтателя / El delfin: La historia de un sonador
Год выпуска: 2009
Страна: Германия, Италия, Перу
Жанр: мультфильм, приключения, семейный
Продолжительность: 01:27:45
Перевод: Профессиональный (многоголосый, закадровый)
Режиссер: Эдуардо Шульдт / Eduardo Schuldt
В ролях: Робби Дэймонд, Дебра Л. Рефаши, Майкл Феррери, Стивен Бут, Мерилин А. Биллон, Dino Gervasoni, Кори Дж. Хольтцберг, Мелисса ЛаФоур, Дина Монако-Боланд, Брайан В. Робертс
Описание: Удивительная история дельфина Даниэля, который отправляется в невероятное путешествию по океану, где его подстерегают различные опасности.
Доп. информация: «Дельфин: История Мечтателя» — красивая, яркая и добрая картина о мечте, которая многим понравится. Мечты помогают нам жить. И нам надо стремиться к тому, о чем мы мечтаем.
Формат 3d: Anamorph SideBySide
Порядок ракурсов: Параллельная пара

Скриншоты

Медиа Инфо

Общее
Уникальный идентификатор : 230019815266247891755983224345573653853 (0xAD0C347B09053299AE08D048E63AFD5D)
Полное имя : D:\Delfin.Plum.2011.Dubbing.PL 1080p.BluRay,3D.x264.HQ.MD.AC3.5.1.SBS-DX (1).mkv
Формат : Matroska
Размер файла : 7,33 Гбайт
Продолжительность : 1 ч. 27 м.
Общий поток : 12,0 Мбит/сек
Название фильма : Released by CClassicHD.Net
Дата кодирования : UTC 2011-07-22 20:37:18
Программа кодирования : mkvmerge v4.0.0 ('The Stars were mine') сборка от Jun 11 2010 23:24:27
Библиотека кодирования : libebml v1.0.0 + libmatroska v1.0.0
Видео
Идентификатор : 1
Формат : AVC
Формат/Информация : Advanced Video Codec
Профиль формата : High@L4.1
Параметр CABAC формата : Да
Параметр ReFrames формата : 4 кадра
Идентификатор кодека : V_MPEG4/ISO/AVC
Продолжительность : 1 ч. 27 м.
Битрейт : 11,5 Мбит/сек
Ширина : 1920 пикс.
Высота : 1080 пикс.
Соотношение сторон : 16:9
Частота кадров : 23,976 кадр/сек
Цветовое пространство : YUV
Подвыборка цветности : 4:2:0
Битовая глубина : 8 бит
Тип развёртки : Прогрессивная
Бит/(Пиксели*Кадры) : 0.231
Размер потока : 7,05 Гбайт (96%)
Библиотека кодирования : x264 core 114 r1900 60ef1f8
Настройки программы : cabac=1 / ref=4 / deblock=1:-1:-1 / analyse=0x3:0x113 / me=umh / subme=9 / psy=1 / psy_rd=1.00:0.15 / mixed_ref=1 / me_range=16 / chroma_me=1 / trellis=1 / 8x8dct=1 / cqm=0 / deadzone=21,11 / fast_pskip=1 / chroma_qp_offset=-3 / threads=18 / sliced_threads=0 / nr=0 / decimate=1 / interlaced=0 / constrained_intra=0 / bframes=3 / b_pyramid=2 / b_adapt=1 / b_bias=0 / direct=3 / weightb=1 / open_gop=0 / weightp=2 / keyint=250 / keyint_min=23 / scenecut=40 / intra_refresh=0 / rc_lookahead=40 / rc=crf / mbtree=1 / crf=18.0 / qcomp=0.60 / qpmin=10 / qpmax=69 / qpstep=4 / ip_ratio=1.40 / aq=1:1.00
Аудио
Идентификатор : 2
Формат : AC-3
Формат/Информация : Audio Coding 3
Расширение режима : CM (complete main)
Идентификатор кодека : A_AC3
Продолжительность : 1 ч. 27 м.
Вид битрейта : Постоянный
Битрейт : 224 Кбит/сек
Каналы : 2 канала
Расположение каналов : Front: L R
Частота : 48,0 КГц
Битовая глубина : 16 бит
Метод сжатия : С потерями
Задержка видео : 810 мс.
Размер потока : 141 Мбайт (2%)
Заголовок : Rus: AC3 2.0, 224kbps - Профессиональный (Многоголосый, закадровый)
Язык : Russian
Delfin.Plum.2011.Dubbing.PL 1080p.BluRay,3D.x264.HQ.MD.AC3.5.1.SBS-DX (1).mkv.torrent
Торрент: Не зарегистрирован

Скачать

37 KB

Добавлен: 2011-07-23 12:50
Скачано: 839 раз  [ Список скачавших ]
   
Комментарии:





Судя по скринам 3д не пахнет, передний и задний план в 2 пикселя )))
 

Сконверченный фейк. Закрыто.
 

Топик был перенесен из форума Фильмы HD в форум Архив

KinoKRITIK