Торренты   
 
 


Воздухоплавание / Ballooning [2010г, 1080p, BDrip, Anamorph OverUnder]

Рейтинг 3D:
1 голосов
6.0
Рейтинг фильма:
1 голосов
5.0
 
Вы должны быть авторизированы,
чтобы ставить оценки


Воздухоплавание / Ballooning Год выпуска: 2010
Страна: Германия
Жанр: Документальный, Видовой
Продолжительность: 00:28:31
Перевод: Отсутствует (не обязателен)
Язык: Немецкий
Режиссер: Stephan Stahl
Описание: О воздушных шарах.
Доп с БД Драгстер. Автор тот же.
Формат 3d: Anamorph OverUnder
Качество: BDrip
Контейнер: MKV
Видео: AVC / 1920х1080p / 23,976 fps / 9 243 Kbps
Аудио: AC3 / 48 KHz / 2 ch / 448 Kbps

MediaInfo

General
Unique ID : 213246986888539826406253931532715489933 (0xA06DE031CCFDD5B0905E0E7B389EFA8D)
Complete name : F:\Downloads\Ballooning3D.halfOU.AC3.ash61.mkv
Format : Matroska
File size : 1.97 GiB
Duration : 28mn 32s
Overall bit rate : 9 888 Kbps
Encoded date : UTC 2011-07-27 09:22:57
Writing application : mkvmerge v3.4.0 ('Rapunzel') сборка от May 15 2010 09:38:20
Writing library : libebml v0.8.0 + libmatroska v0.9.0
Video
ID : 1
Format : AVC
Format/Info : Advanced Video Codec
Format profile : High@L4.1
Format settings, CABAC : Yes
Format settings, ReFrames : 4 frames
Codec ID : V_MPEG4/ISO/AVC
Duration : 28mn 32s
Bit rate : 9 243 Kbps
Width : 1 920 pixels
Height : 1 080 pixels
Display aspect ratio : 16:9
Frame rate : 23.976 fps
Color space : YUV
Chroma subsampling : 4:2:0
Bit depth : 8 bits
Scan type : Progressive
Bits/(Pixel*Frame) : 0.186
Stream size : 1.84 GiB (93%)
Title : Rip by Ash61
Writing library : x264 core 113 r1884 7313bb5
Encoding settings : cabac=1 / ref=4 / deblock=1:-1:-1 / analyse=0x3:0x113 / me=umh / subme=9 / psy=1 / psy_rd=1.00:0.15 / mixed_ref=1 / me_range=16 / chroma_me=1 / trellis=2 / 8x8dct=1 / cqm=0 / deadzone=21,11 / fast_pskip=1 / chroma_qp_offset=-3 / threads=3 / sliced_threads=0 / nr=0 / decimate=1 / interlaced=0 / constrained_intra=0 / bframes=6 / b_pyramid=2 / b_adapt=2 / b_bias=0 / direct=3 / weightb=1 / open_gop=0 / weightp=2 / keyint=250 / keyint_min=23 / scenecut=40 / intra_refresh=0 / rc_lookahead=60 / rc=crf / mbtree=1 / crf=18.0 / qcomp=0.60 / qpmin=1 / qpmax=51 / qpstep=4 / ip_ratio=1.40 / aq=1:1.00
Audio
ID : 2
Format : AC-3
Format/Info : Audio Coding 3
Mode extension : CM (complete main)
Codec ID : A_AC3
Duration : 28mn 32s
Bit rate mode : Constant
Bit rate : 448 Kbps
Channel(s) : 2 channels
Channel positions : Front: L R
Sampling rate : 48.0 KHz
Bit depth : 16 bits
Compression mode : Lossy
Stream size : 91.4 MiB (5%)
Language : German
Menu
00:00:00.000 : :01
00:01:56.658 : :02
00:06:18.336 : :03
00:09:55.595 : :04
00:11:08.877 : :05
00:12:47.600 : :06
00:17:35.054 : :07
00:22:22.049 : :08
00:23:03.716 : :09
00:25:18.016 : :10

Скриншоты

Благодарности релизеру (7)

Торрент:

Статус:

Размер:

Зарегистрирован   [ 2011-07-27 14:39 ]

проверено

1.97 GB