Торренты   
 
 


Чудеса: Карлсбадские пещеры; Плотина Гувера / Wonders: Carlsbad Caverns; Hoover Dam [2011 г., 1080p, HDTVrip, Anamorph SideBySide]

Рейтинг 3D:
1 голосов
5.0
Рейтинг фильма:
1 голосов
8.0
 
Вы должны быть авторизированы,
чтобы ставить оценки


Чудеса: Карлсбадские пещеры; Плотина Гувера / Wonders: Carlsbad Caverns; Hoover Dam

Год выпуска: 2011
Страна: Великобритания
Жанр: Документальный, Видовой
Продолжительность: 00:23:21
Перевод: Отсутствует (не обязателен)
Язык: Английский
Описание:
В новой серии британского документального сериала вы увидите потрясающие красоты Карлсбадских пещер одноименного американского национального парка, и величественную красоту плотины Гувера, которая притает электроэнергией чуть ли половину Америки ...
Формат 3d: Anamorph SideBySide
Порядок ракурсов: Параллельная пара
Качество: HDTVrip
Контейнер: MKV
Видео: AVC / 1920х1080p / 25.000 fps / 4 998 Kbps
Аудио: AC3 / 2.0 ch / 384 Kbps / 48 KHz

MediaInfo

General
Unique ID : 238383537271078325668144839145534040014 (0xB356FFD005F0129A8CFF4182CB30A7CE)
Complete name : Wonders 2.mkv
Format : Matroska
File size : 900 MiB
Duration : 23mn 21s
Overall bit rate : 5 384 Kbps
Encoded date : UTC 2011-07-29 02:00:12
Writing application : mkvmerge v4.7.0 ('Just Like You Imagined') built on Apr 21 2011 01:13:14
Writing library : libebml v1.2.0 + libmatroska v1.1.0
Video
ID : 1
Format : AVC
Format/Info : Advanced Video Codec
Format profile : High@L4.0
Format settings, CABAC : Yes
Format settings, ReFrames : 4 frames
Format settings, GOP : M=4, N=32
Codec ID : V_MPEG4/ISO/AVC
Duration : 23mn 21s
Bit rate : 4 998 Kbps
Width : 1 920 pixels
Height : 1 080 pixels
Display aspect ratio : 16:9
Frame rate : 25.000 fps
Color space : YUV
Chroma subsampling : 4:2:0
Bit depth : 8 bits
Scan type : Progressive
Bits/(Pixel*Frame) : 0.096
Stream size : 818 MiB (91%)
Writing library : x264 core 115 r1995 c1e60b9
Encoding settings : cabac=1 / ref=3 / deblock=1:0:0 / analyse=0x3:0x113 / me=hex / subme=7 / psy=1 / psy_rd=1.00:0.00 / mixed_ref=1 / me_range=16 / chroma_me=1 / trellis=1 / 8x8dct=1 / cqm=0 / deadzone=21,11 / fast_pskip=1 / chroma_qp_offset=-2 / threads=3 / sliced_threads=0 / nr=0 / decimate=1 / interlaced=0 / bluray_compat=0 / constrained_intra=0 / bframes=3 / b_pyramid=2 / b_adapt=1 / b_bias=0 / direct=1 / weightb=1 / open_gop=0 / weightp=2 / keyint=250 / keyint_min=25 / scenecut=40 / intra_refresh=0 / rc_lookahead=40 / rc=2pass / mbtree=1 / bitrate=4998 / ratetol=1.0 / qcomp=0.60 / qpmin=0 / qpmax=69 / qpstep=4 / cplxblur=20.0 / qblur=0.5 / ip_ratio=1.40 / aq=1:1.00
Audio
ID : 2
Format : AC-3
Format/Info : Audio Coding 3
Mode extension : CM (complete main)
Codec ID : A_AC3
Duration : 23mn 21s
Bit rate mode : Constant
Bit rate : 384 Kbps
Channel(s) : 2 channels
Channel positions : Front: L R
Sampling rate : 48.0 KHz
Bit depth : 16 bits
Compression mode : Lossy
Delay relative to video : 64ms
Stream size : 64.2 MiB (7%)
Language : English
Благодарности релизеру (1)

Торрент:

Статус:

Размер:

Зарегистрирован   [ 2011-07-30 14:13 ]

проверено

900 MB